#TITLE:vans;
#SUBTITLE:;
#ARTIST:The Pack;
#TITLETRANSLIT:;
#SUBTITLETRANSLIT:;
#ARTISTTRANSLIT:;
#GENRE:;
#CREDIT:;
#BANNER:;
#BACKGROUND:;
#LYRICSPATH:;
#CDTITLE:;
#MUSIC:The Pack - Vans (Main Version).ogg;
#OFFSET:0.000000;
#SAMPLESTART:100.059883;
#SAMPLELENGTH:12.000000;
#SELECTABLE:YES;
#BPMS:0.000000=102.000000
;
#STOPS:0.000000=0.100000
;
#BGCHANGES:0.000=The Pack - Vans (Official Video).mp4=1.000=0=0=1=====,
99999=-nosongbg-=1.000=0=0=0 // don't automatically add -songbackground-
;
#KEYSOUNDS:;
#ATTACKS:;

//---------------dance-single - ----------------
#NOTES:
     dance-single:
     :
     Hard:
     14:
     0.570646,0.623782,0.019297,0.000000,0.526813,1035.000000,1030.000000,5.000000,0.000000,0.000000,0.000000,0.570646,0.623782,0.019297,0.000000,0.526813,1035.000000,1030.000000,5.000000,0.000000,0.000000,0.000000:
// measure 0
0000
0000
0000
0000
,  // measure 1
0000
0000
0000
0000
,  // measure 2
0010
0001
0100
0000
0010
0000
0001
0100
0010
0000
0001
0000
0100
0000
1000
0000
,  // measure 3
0010
0001
0100
0000
1000
0000
0001
0100
0010
0000
0001
0000
0100
0000
0010
0000
,  // measure 4
0001
0100
1000
0000
0100
0000
0010
0001
0100
0000
0010
0000
0001
0000
0100
0000
,  // measure 5
1000
0000
0001
0000
0100
0000
0010
0100
0001
0000
0100
0000
0010
0000
0100
0000
,  // measure 6
0001
0010
0100
0000
0001
0000
1000
0100
0001
0000
0010
0000
0100
0000
0001
0000
,  // measure 7
0010
0100
0001
0000
1000
0000
0100
0001
0010
0000
0100
0000
0001
0000
0010
0000
,  // measure 8
0100
0001
0010
0000
0100
0000
0010
0001
0100
0000
0010
0000
0100
0000
0001
0000
,  // measure 9
1000
0000
0010
0000
0100
0000
0010
0001
0100
0000
0100
0000
0010
0000
0100
0000
,  // measure 10
0010
0001
0100
0000
0010
0000
0001
0100
0010
0000
1000
0001
0100
0000
0001
0000
,  // measure 11
0010
0000
0100
0001
1000
0000
0010
0000
0001
0000
0010
0000
0100
0000
0010
0100
,  // measure 12
0001
0000
0100
0000
0010
0000
0001
1000
0100
0000
0010
0001
0100
0000
0100
0010
,  // measure 13
0001
0100
0010
0000
0001
0000
0100
0000
1000
0000
0001
0000
0100
0000
0010
0000
,  // measure 14
0010
0001
1000
0001
0100
0000
0001
1000
0001
0100
0010
0000
0100
0000
0000
0000
,  // measure 15
0010
0100
0001
1000
0100
0000
0010
0000
0100
0001
1000
0000
0010
0000
0100
0001
,  // measure 16
1000
0001
0010
0100
0010
0100
0001
1000
0100
0000
0001
0000
0100
0000
0010
0000
,  // measure 17
0100
0001
0100
0000
0010
0100
0001
0000
1000
0000
0000
0000
0100
0000
0000
0000
,  // measure 18
0010
0100
0001
1000
0001
0000
0010
0000
1000
0001
0100
0000
1000
0000
0001
0000
,  // measure 19
0110
0000
0010
0000
0100
0000
0010
0100
0001
0000
0010
0100
0010
0000
0001
0000
,  // measure 20
0100
0000
0010
0000
0100
0001
1000
0010
0100
0000
0010
0000
0001
0000
0100
0000
,  // measure 21
0010
0000
1000
0001
0100
0000
0010
0100
0001
1000
0100
0000
0001
0000
0010
0100
,  // measure 22
0001
0000
0100
0000
0010
0100
0001
1000
0001
0100
0010
0000
0100
0000
0010
0100
,  // measure 23
0001
0000
0100
0000
1000
0000
0010
0100
0001
0100
0010
0000
0100
0010
0000
0100
,  // measure 24
0001
0010
0100
0000
0010
0100
0001
0000
0100
0010
0100
0000
0001
1000
0000
0100
,  // measure 25
0001
0000
0000
0000
0010
0000
0100
0000
0001
0100
0010
0000
0100
0000
0010
0000
,  // measure 26
0110
0000
0000
0000
,  // measure 27
0000
0000
0000
0000
,  // measure 28
1000
0100
0001
0000
0010
0000
0100
0001
0010
0000
0100
0000
0001
0000
1000
0000
,  // measure 29
0100
0100
0100
0000
0010
0000
0100
0001
0010
0000
0100
0000
0001
0000
1000
0000
,  // measure 30
0100
0001
0010
0000
0100
0000
0001
0100
1000
0000
0010
0000
0001
0000
0100
0000
,  // measure 31
1000
0000
0010
0000
0100
0000
0001
0010
0100
0000
0001
0000
1000
0000
0100
0000
,  // measure 32
0001
0010
0100
0000
0001
0000
1000
0100
0001
0000
0010
0000
0100
0000
0001
0000
,  // measure 33
0010
0100
0001
0000
1000
0000
0100
0001
0010
0000
0100
0000
0001
0000
1000
0000
,  // measure 34
0010
0100
0001
0000
1000
0000
0100
0001
0010
0000
0100
0000
0001
0000
0100
0000
,  // measure 35
1000
0000
0010
0000
0100
0000
0001
1000
0100
0000
0100
0000
0010
0000
0001
1000
,  // measure 36
0100
0000
0001
0100
0010
0100
0001
0000
1000
0100
0000
0010
0000
0000
0100
0001
,  // measure 37
1000
0010
0100
0000
0010
0100
0001
0000
1000
0100
0001
0010
0000
0000
1001
0000
,  // measure 38
0100
0010
0100
0000
0010
0000
0001
0100
1000
0000
0001
0000
0100
0000
0010
0100
,  // measure 39
0001
0010
0100
0000
0010
0000
0001
0100
0010
0000
0010
0000
0001
0000
0100
0000
,  // measure 40
1000
0000
0010
0100
0001
0000
0100
0000
0010
0001
0100
0000
0010
0000
0010
0000
,  // measure 41
0100
0001
0010
0000
0010
0001
0100
0001
1000
0000
0100
0000
0010
0000
0100
0000
,  // measure 42
0001
0010
0100
0001
1000
0000
0010
0000
0100
0000
0010
0100
0001
0000
0000
0100
,  // measure 43
0010
0100
0001
0000
0100
0000
0010
0000
0100
0001
0100
0000
0010
0000
0100
0001
,  // measure 44
0010
0000
0010
0000
0100
0000
0001
1000
0100
0010
0100
0000
0100
0000
0010
0000
,  // measure 45
0100
0010
0100
0001
0010
0100
0001
0000
0100
0000
0010
0100
0001
0000
0100
0000
,  // measure 46
0010
0000
0100
0000
0001
0000
0010
0000
0100
0010
0100
0001
1000
0000
0100
0001
,  // measure 47
0010
0000
0100
0000
0010
0000
0100
0001
1000
0010
0100
0000
0000
0000
0000
0010
,  // measure 48
0100
0000
0010
0000
0100
0000
0001
1000
0100
0000
0001
0000
0010
0100
0000
0000
,  // measure 49
0010
0000
0001
0100
1000
0000
0100
0001
0010
0000
0001
0100
0010
0000
1000
0100
,  // measure 50
0001
0000
0010
0100
0001
0000
0010
0000
0100
0000
0001
1000
0100
0000
0001
0100
,  // measure 51
0010
0000
0010
0100
0001
0000
0010
0001
0100
0000
0010
0100
0001
0000
0110
0000
,  // measure 52
0000
0000
0000
0000
,  // measure 53
0000
0000
0000
0000
,  // measure 54
1000
0100
0001
0000
0010
0000
0100
0001
0010
0000
0100
0000
0001
0000
1000
0000
,  // measure 55
0100
0010
0100
0000
0001
0000
1000
0100
0001
0000
0010
0000
0100
0000
0001
0000
,  // measure 56
0010
0100
0001
0000
1000
0000
0100
0001
0010
0000
0100
0000
0001
0000
1000
0000
,  // measure 57
0100
0000
0010
0000
0100
0000
0001
1000
0100
0000
0001
0000
0010
0000
0100
0000
,  // measure 58
0001
1000
0100
0000
0010
0000
0100
1000
0001
0000
0010
0000
0100
0000
1000
0000
,  // measure 59
0100
0010
0100
0000
0001
0000
1000
0100
0001
0000
0010
0000
0100
0000
0001
0000
,  // measure 60
0010
0100
0001
0000
1000
0000
0100
0001
0010
0000
0100
0000
0001
0000
0010
0001
,  // measure 61
0100
0000
0100
0000
0010
0000
1000
0001
0100
0000
0010
0000
0100
0000
0000
0000
,  // measure 62
0001
0000
1000
0000
0100
0010
0100
0001
1000
0000
0000
0000
0100
0000
0010
0000
,  // measure 63
0100
0001
1000
0000
0100
0001
0010
0000
0100
0010
0100
0000
0001
0000
1000
0000
,  // measure 64
0000
0000
1000
0100
0001
0010
0100
0000
0010
0100
0001
1000
0001
0000
0100
0010
,  // measure 65
0100
0000
0100
0000
0010
0000
0001
0100
0001
1000
0100
0001
0010
0000
0100
0001
,  // measure 66
1000
0000
0100
0000
0010
0001
0100
0000
0010
0100
0001
0000
1000
0000
0100
0001
,  // measure 67
0010
0000
0010
0000
0001
0000
0100
0000
0010
0000
0100
0001
0010
0000
0100
0000
,  // measure 68
0010
0000
0000
0000
1000
0100
0001
0000
0010
0000
0100
0001
0010
0000
0100
0001
,  // measure 69
0100
0001
0010
0000
1000
0100
0001
0000
0100
0010
0100
0000
0010
0100
0001
1000
,  // measure 70
0001
0000
0010
0100
0001
0000
0010
0000
0100
0001
1000
0001
0010
0100
0001
0000
,  // measure 71
0010
0100
0001
1000
0001
0000
0010
0000
0100
0010
0001
0100
1000
0010
0100
0000
,  // measure 72
0010
0000
0100
0001
1000
0000
0010
0100
0001
0010
0000
0100
0000
0000
0010
0100
,  // measure 73
0000
0001
1000
0000
0100
0000
0010
0100
0001
1000
0001
0010
0100
0000
0010
0000
,  // measure 74
0000
0000
0000
0000
0100
0001
0010
0000
0010
0000
0100
0001
0000
0000
1000
0100
,  // measure 75
0001
0010
0100
0001
1000
0000
0010
0001
0100
0010
0100
0001
1000
0000
0100
0000
,  // measure 76
0010
0100
0001
1000
0001
0010
0100
0001
1000
0001
0010
0100
0001
1000
0010
0100
,  // measure 77
0001
0000
0010
0100
0001
0000
1000
0100
0001
0000
0001
1000
0100
0000
0010
0000
,  // measure 78
1001
0000
0000
0000
,  // measure 79
0000
0000
0000
0000
,  // measure 80
1000
0100
0001
0000
0010
0000
0100
0001
0010
0000
0100
0000
0001
0000
1000
0000
,  // measure 81
0100
0001
0010
0000
0100
0000
0001
1000
0100
0000
0001
0000
0010
0000
0100
0000
,  // measure 82
0001
0010
0100
0000
0001
0000
1000
0100
0001
0000
0010
0000
0100
0000
0001
0000
,  // measure 83
0010
0000
0100
0000
0001
0000
1000
0100
0001
0000
0010
0000
0100
0000
0001
0000
,  // measure 84
0010
0100
0001
0000
1000
0000
0100
0001
0010
0000
0100
0000
0001
0000
0010
0000
,  // measure 85
0100
0001
0010
0000
0100
0000
0001
1000
0100
0000
0001
0000
0010
0000
0100
0000
,  // measure 86
0001
1000
0100
0000
0001
0000
0010
0100
0001
0000
1000
0000
0100
0000
0001
0000
,  // measure 87
0010
0000
0100
0000
0010
0000
0001
0100
1000
0000
0001
0000
0100
0000
0000
0000
,  // measure 88
0010
0001
0100
0000
0010
0000
0001
1000
0100
0000
0001
0000
0100
0000
0010
0000
,  // measure 89
0100
0001
0100
0000
0010
0000
0100
0000
0010
0000
0001
1000
0100
0000
0010
0000
,  // measure 90
0100
0001
1000
0001
0010
0100
0010
0100
0001
1000
0100
0001
0010
0000
0001
1000
,  // measure 91
0100
0001
0100
0001
0010
0000
0100
0001
0010
0000
0100
0000
0010
0000
0100
0001
,  // measure 92
0010
0000
0100
0001
0010
0000
0001
0100
1000
0000
0000
0000
0000
0000
0000
0000
,  // measure 93
0100
0000
0010
0000
0001
0000
0100
0001
1000
0000
0100
0000
0010
0100
0001
1000
,  // measure 94
0001
0010
0100
0000
0001
0000
0010
0100
0001
1000
0100
0000
0010
0100
0000
0000
,  // measure 95
0010
0000
0001
0000
0100
0000
0001
0000
0100
0000
0100
0001
1000
0000
0010
0000
,  // measure 96
0100
0000
0010
0100
0001
0000
0010
0000
0100
0010
1000
0001
0010
0000
0100
0000
,  // measure 97
0010
0000
0100
0001
0010
0000
1000
0100
0001
0000
0010
0100
0001
0000
0000
0000
,  // measure 98
0100
0010
0100
0000
0001
1000
0100
0000
0100
0000
0010
0000
0100
0000
0001
1000
,  // measure 99
0100
0100
0010
0001
0100
0001
0100
1000
,  // measure 100
0100
0010
0100
0001
1000
0000
0100
0000
0001
0000
0010
0000
0001
0000
0100
0010
,  // measure 101
0100
0001
1000
0000
0100
0000
0010
0100
0001
1000
0001
0000
0100
0000
0010
0000
,  // measure 102
0100
0000
0100
0000
0010
0000
0100
0001
0010
0000
0100
0001
1000
0000
0010
0100
,  // measure 103
0001
0000
1000
0000
0100
0000
0010
0100
0001
1000
0001
0100
0010
0000
0001
0000
,  // measure 104
0010
0000
0100
0001
0000
1000
0100
0000
0000
0000
0000
0000
0010
0000
0000
0000
,  // measure 105
0100
0000
0010
0001
0000
0100
1000
0000
0000
0000
0000
0000
0100
0000
0000
0000
,  // measure 106
0100
0000
0010
0100
0000
0001
1000
0000
0000
0000
0000
0000
0010
0000
0000
0000
,  // measure 107
0001
0000
0100
0010
0000
0001
0100
0000
0000
0000
0000
0000
1000
0000
0000
0000
;
