#TITLE:ufo;
#SUBTITLE:(attention);
#ARTIST:SAY MY NAME;
#TITLETRANSLIT:;
#SUBTITLETRANSLIT:;
#ARTISTTRANSLIT:;
#GENRE:;
#CREDIT:;
#BANNER:;
#BACKGROUND:;
#LYRICSPATH:;
#CDTITLE:;
#MUSIC:UFO (ATTENT!ON).ogg;
#OFFSET:0.000000;
#SAMPLESTART:100.059883;
#SAMPLELENGTH:12.000000;
#SELECTABLE:YES;
#BPMS:0.000000=160.000000
,192.000000=80.000000
,208.000000=160.000000
;
#STOPS:0.000000=0.200000
;
#BGCHANGES:;
#KEYSOUNDS:;
#ATTACKS:;

//---------------dance-single - ----------------
#NOTES:
     dance-single:
     :
     Hard:
     14:
     0.484995,1.042538,0.132026,0.075444,0.198040,540.000000,519.000000,21.000000,12.000000,0.000000,0.000000,0.484995,1.042538,0.132026,0.075444,0.198040,540.000000,519.000000,21.000000,12.000000,0.000000,0.000000:
// measure 0
0000
0000
0000
0000
,  // measure 1
0000
0000
0000
0000
,  // measure 2
0000
0000
0000
0000
,  // measure 3
0000
0000
0000
0000
,  // measure 4
1100
0001
0100
0010
,  // measure 5
0001
0100
0001
0100
0001
1000
0100
0000
,  // measure 6
1000
0001
0100
0001
,  // measure 7
0100
0010
1001
1001
,  // measure 8
0110
0010
0001
1000
0001
0100
1000
0100
,  // measure 9
0010
0001
0100
0001
1000
0000
0100
0000
,  // measure 10
0000
0001
0100
0010
0001
1000
0001
0100
,  // measure 11
1000
0100
0001
0100
0001
1000
0100
0001
,  // measure 12
0020
0000
0000
0000
,  // measure 13
0030
0001
0100
0000
0001
0010
1000
0000
,  // measure 14
0200
0000
0000
0300
,  // measure 15
0010
0000
0100
0001
1000
0000
0100
0001
0010
0000
0100
0000
0001
0000
1000
0000
,  // measure 16
0100
0000
1000
0000
0001
0010
0100
0000
,  // measure 17
0010
0000
0001
1000
0001
0100
1000
0000
,  // measure 18
0100
0010
0001
1000
0001
0100
1000
0010
,  // measure 19
0001
0000
1000
0100
0000
0010
0000
0001
,  // measure 20
0020
0000
0000
0000
,  // measure 21
0000
0000
0000
0000
,  // measure 22
0030
0010
0001
0100
0001
1000
0100
0001
,  // measure 23
0010
0001
1000
0001
0100
0000
1000
0000
,  // measure 24
0100
0001
1000
0100
,  // measure 25
1000
0001
0100
0010
,  // measure 26
2000
0000
0000
0000
0000
0000
3000
0100
,  // measure 27
0010
0001
0100
0001
0100
0000
1000
0000
,  // measure 28
0001
0100
0001
0100
0010
0001
1000
0001
,  // measure 29
0100
0010
0001
1000
0001
0100
0010
0100
,  // measure 30
2002
0000
0000
0000
0000
0000
3003
0010
,  // measure 31
0101
0000
0110
0000
0001
1000
0100
0000
,  // measure 32
0100
0100
0000
0000
0000
0000
0000
0000
,  // measure 33
0010
0010
0000
0000
0100
0100
0000
0000
,  // measure 34
0010
0010
0000
0000
0000
0000
0000
1000
,  // measure 35
0100
0001
0000
0000
0100
0100
0000
0000
,  // measure 36
0001
0001
0000
0000
0000
0000
0000
0010
,  // measure 37
0001
0100
0001
1000
0100
0000
0100
0000
,  // measure 38
0001
0000
0000
0100
0000
0000
0010
0000
,  // measure 39
0010
0000
0100
0000
0001
0000
0100
0000
0100
0000
0000
0000
0001
1000
0100
0001
,  // measure 40
0100
0000
0000
0010
0000
0000
0001
0000
,  // measure 41
0000
0010
0001
1000
0001
0100
1000
0000
,  // measure 42
0010
0000
0000
0001
0000
0000
0100
0000
,  // measure 43
0000
0000
0000
0000
1000
0001
0100
0000
,  // measure 44
0100
0010
0000
0100
0001
0000
1001
0000
,  // measure 45
0100
0010
0000
0100
0001
0000
0000
0000
,  // measure 46
1000
0000
0001
0010
0100
0001
0100
0001
1000
0001
0010
0100
0001
1000
0001
0010
,  // measure 47
0100
0000
0100
0000
0000
0000
0000
0000
0100
0000
0100
0000
0100
0001
0100
0001
,  // measure 48
0100
0001
0010
1000
0001
0100
1000
0000
0000
0010
0001
1000
0100
0000
0000
0010
0001
1000
0100
0000
0000
0010
0000
0000
,  // measure 49
0010
0000
0000
0100
0001
0100
1000
0000
0000
0100
0001
0100
1000
0000
0000
0010
0001
0100
1000
0000
0000
0001
0000
0000
,  // measure 50
0100
0000
0100
0010
0100
0001
0100
0010
0001
1000
0001
0100
0010
0100
0000
0001
,  // measure 51
0000
0000
0000
0000
0000
0000
1000
0100
0000
0000
0010
0001
0000
0000
0001
0100
,  // measure 52
0010
0010
0010
0010
,  // measure 53
1000
0001
0100
0010
,  // measure 54
0002
0000
0000
0000
0000
0000
0003
0100
,  // measure 55
0100
0010
0001
1000
0001
0100
1000
0000
,  // measure 56
0010
0001
0100
0010
0001
1000
0001
0100
,  // measure 57
0010
0001
1000
0001
0100
0010
0001
0100
,  // measure 58
2002
0000
0000
0000
0000
0000
3003
0010
,  // measure 59
1000
0000
0100
0000
0001
0100
0010
0000
,  // measure 60
0010
0010
0000
0000
0110
0000
0101
0000
,  // measure 61
1000
1000
0000
0000
0100
0100
0000
0000
,  // measure 62
0010
0010
0000
0000
0110
0000
0101
0001
,  // measure 63
0100
0001
0000
0000
1000
1000
0000
0000
,  // measure 64
0100
0100
0000
0110
0000
0110
0000
1001
,  // measure 65
0001
0000
0000
0100
0000
0000
0010
0001
,  // measure 66
0000
0000
0000
0010
0100
0000
0000
0000
,  // measure 67
0010
0000
0001
0000
1000
0000
0001
0000
0100
0000
0000
0000
1000
0010
0100
0001
,  // measure 68
1000
0000
0000
0100
0000
0000
0010
0000
,  // measure 69
0000
0000
0001
1000
0001
0100
1000
0000
,  // measure 70
0010
0000
0000
0001
0000
0000
0200
0000
,  // measure 71
0000
0000
0300
0000
0100
0010
0100
0000
,  // measure 72
1000
0100
0000
0001
0100
0000
0101
0000
,  // measure 73
0001
0010
0000
1000
0100
0000
1001
0000
,  // measure 74
0010
0100
0001
1000
0001
0010
0100
0001
1000
0001
0010
0100
0001
0100
0001
0100
,  // measure 75
0001
0000
0001
0000
0000
0000
0000
0000
0010
0000
0010
0000
0001
1000
0100
0010
,  // measure 76
0100
0000
0101
0000
1000
0000
0100
0001
,  // measure 77
0000
0100
1000
0000
0001
0000
0100
0000
,  // measure 78
0010
0000
0100
0000
0001
0000
0010
0100
,  // measure 79
0000
0010
0100
0000
0001
0000
0100
0000
,  // measure 80
1000
0010
0001
0100
0001
0100
1000
0000
,  // measure 81
0000
0100
0000
0000
0000
0000
0000
0100
,  // measure 82
1000
0001
0000
1000
0000
0100
0000
0010
,  // measure 83
0100
0001
0000
0001
0100
1000
0000
0000
,  // measure 84
0100
0100
0000
0000
0000
0000
0000
0000
,  // measure 85
0010
0010
0000
0000
1000
1000
0000
0000
,  // measure 86
0100
0100
0000
0000
0000
0000
0000
0001
,  // measure 87
0100
1000
0000
0000
0100
0100
0000
0000
,  // measure 88
0001
0001
0000
0000
0000
0000
0000
0100
,  // measure 89
1000
0000
0100
0001
0000
0000
0100
0001
,  // measure 90
0000
0000
0000
0100
0001
0000
0000
0000
,  // measure 91
0010
0000
0001
0000
1000
0000
0001
0000
0100
0010
0100
0001
1000
0010
0100
0001
,  // measure 92
0100
0000
0000
0100
0000
0000
0002
0000
,  // measure 93
0003
0000
0010
0100
0001
1000
0001
0000
,  // measure 94
0001
0000
0000
0100
0000
0000
0010
0000
,  // measure 95
0000
0000
0000
0000
0001
0100
0001
0000
,  // measure 96
1000
0100
0000
0010
0100
0000
1001
0000
,  // measure 97
0010
0001
0000
1000
0100
0000
0110
0000
,  // measure 98
0001
0100
0001
0100
0001
0100
0010
0001
1000
0001
0100
0010
0001
1000
0001
0100
,  // measure 99
1000
0000
1000
0000
0000
0000
0000
0000
0010
0000
0010
0000
0100
0001
0100
1000
,  // measure 100
0200
0000
0300
0000
;
