#TITLE:u wanna;
#SUBTITLE:;
#ARTIST:CeCe Natalie;
#TITLETRANSLIT:;
#SUBTITLETRANSLIT:;
#ARTISTTRANSLIT:;
#GENRE:;
#CREDIT:;
#BANNER:;
#BACKGROUND:;
#LYRICSPATH:;
#CDTITLE:;
#MUSIC:Cece Natalie - U Wannaa.ogg;
#OFFSET:0.000000;
#SAMPLESTART:100.059883;
#SAMPLELENGTH:12.000000;
#SELECTABLE:YES;
#BPMS:0.000000=90.000000
;
#STOPS:0.000000=0.100000
;
#BGCHANGES:;
#KEYSOUNDS:;
#ATTACKS:;

//---------------dance-single - ----------------
#NOTES:
     dance-single:
     :
     Hard:
     12:
     0.463020,0.523084,0.000000,0.064823,0.630222,450.000000,450.000000,0.000000,9.000000,0.000000,0.000000,0.463020,0.523084,0.000000,0.064823,0.630222,450.000000,450.000000,0.000000,9.000000,0.000000,0.000000:
// measure 0
0000
0000
0000
0000
,  // measure 1
0000
0000
0000
0000
,  // measure 2
0000
0000
0000
0000
,  // measure 3
0000
0000
0000
0000
0000
0000
0000
0000
0000
0000
0000
0000
0000
0000
0000
1000
,  // measure 4
0100
0000
0001
0010
0100
0001
0010
0000
0100
0000
0010
0000
0001
0000
0100
0000
,  // measure 5
0100
0000
0010
0100
0001
1000
0001
0000
0010
0000
0100
0001
1000
0001
0010
0000
,  // measure 6
0100
0000
0100
0010
0001
0100
0001
1000
0100
0010
0100
0001
0010
0100
0010
0000
,  // measure 7
0010
0000
0100
0001
1000
0001
0010
0000
0100
0000
0010
0000
0100
0001
1000
0000
,  // measure 8
0001
0100
0010
0000
0001
0000
1000
0000
0001
0000
0100
0000
0010
0000
0100
0001
,  // measure 9
0010
0100
0001
1000
0100
0000
0001
0010
0100
0000
0010
0000
0100
0001
0010
0000
,  // measure 10
1000
0000
0001
0000
0100
0000
0000
0010
0001
1000
0001
0100
1000
0000
0000
0100
,  // measure 11
0000
0001
1000
0000
0100
0000
0000
0000
0000
0000
0000
0000
0000
0000
0100
0000
,  // measure 12
0010
0000
0000
0000
0100
0001
0000
0000
1000
0000
0100
0001
0000
0010
0100
0000
,  // measure 13
0000
0000
0100
0010
0001
1000
0001
0100
0010
0000
0100
0001
0010
0100
0001
0000
,  // measure 14
0000
0000
0100
0010
0001
0100
0001
1000
0100
0000
0010
0100
0001
1000
0001
0000
,  // measure 15
0100
0001
0100
0010
0100
1000
0000
0000
0100
0000
0000
0000
0100
0000
0000
0000
,  // measure 16
0001
0000
0000
0000
1000
0100
0000
0000
0010
0000
0100
0001
0000
0100
0010
0000
,  // measure 17
0000
0000
0010
0100
0001
1000
0100
0010
0100
0000
0010
0100
0001
1000
0001
0000
,  // measure 18
0000
0000
0100
0010
0001
0100
0001
0100
1000
0000
0100
0010
0001
0100
1000
0000
,  // measure 19
0010
0001
0100
0010
0100
0001
0000
0100
0010
0001
0100
0000
0200
0000
0000
0000
,  // measure 20
0000
0000
0000
0000
0300
0000
0010
0100
0001
1000
0001
0000
0200
0000
0000
0000
,  // measure 21
0000
0000
0000
0000
0300
0000
0010
0001
1000
0001
0100
0000
0020
0000
0000
0000
,  // measure 22
0000
0000
0000
0000
0030
0000
0100
0001
1000
0100
0010
0000
0200
0000
0000
0000
,  // measure 23
0000
0000
0000
0000
0300
0000
0010
0100
0010
0001
1000
0000
0100
0000
0000
0000
,  // measure 24
0100
1000
0100
0001
0100
0001
0010
0000
0010
0000
0001
1000
0100
0000
0100
0000
,  // measure 25
0010
0000
0001
1000
0100
0000
0100
0000
0010
0000
0100
0010
0100
0001
1000
0000
,  // measure 26
0010
0000
0100
0010
0001
0100
0001
1000
0100
0000
0010
0100
0010
0100
0001
0100
,  // measure 27
1000
0000
0010
0001
1000
0100
0001
0000
0100
0000
0010
0000
0100
0001
0000
0000
,  // measure 28
1000
0100
0001
0010
0100
0000
0001
0100
0001
1000
0100
0000
0001
0000
0010
0001
,  // measure 29
0100
0010
0100
0001
1000
0000
0100
0010
0100
0000
0001
0000
0010
0000
0100
0000
,  // measure 30
0100
0000
1000
0000
0100
0001
0000
0010
0000
0001
0100
0000
1000
0100
0010
0001
,  // measure 31
0000
0100
0010
0000
0100
0001
1000
0001
0000
0000
0000
0000
0000
0000
0010
0000
,  // measure 32
0100
0000
0000
0000
0100
0001
0000
0000
0100
0000
0010
0100
0000
0001
1000
0000
,  // measure 33
0000
0000
0010
0100
0001
0100
0001
0100
1000
0000
0010
0100
0001
1000
0001
0000
,  // measure 34
0000
0000
0100
0010
0001
0100
0001
0100
1000
0000
0010
0100
0001
1000
0100
0000
,  // measure 35
0100
0010
0001
1000
0001
0020
0000
0000
0000
0000
0000
0000
0000
0000
0030
0000
,  // measure 36
0010
0000
0000
0000
0001
0010
0000
0000
0100
0000
0001
1000
0000
0100
0001
0000
,  // measure 37
0000
0000
0010
0001
0100
0010
1000
0100
0001
0000
0010
0100
0001
1000
0001
0000
,  // measure 38
0000
0000
0001
0100
0001
1000
0100
0010
0100
0000
0010
0100
0001
0100
1000
0000
,  // measure 39
0010
0001
0100
0010
0100
0001
0100
0010
0001
0100
1000
0000
0200
0000
0000
0000
,  // measure 40
0000
0000
0000
0000
0300
0000
0100
0001
0100
0001
0010
0000
0020
0000
0000
0000
,  // measure 41
0000
0000
0000
0000
0030
0000
0100
0001
1000
0001
0010
0000
0200
0000
0000
0000
,  // measure 42
0000
0000
0300
0000
0000
0000
0010
0100
0001
1000
0001
0000
0020
0000
0000
0000
,  // measure 43
0000
0000
0030
0000
0000
0000
0100
0010
1000
0001
0100
0000
0010
0000
0000
0000
,  // measure 44
0100
0000
0000
0001
0000
0010
0100
0000
0000
0100
0000
0000
0010
0000
0100
0001
,  // measure 45
0010
0000
0000
0100
0000
0001
1000
0000
0000
0100
0000
0001
0010
0000
0100
0000
,  // measure 46
0001
0000
0000
0100
0000
0010
0001
0000
0000
0010
0000
0000
0100
0000
0001
0010
,  // measure 47
0100
0000
0000
0001
0000
0100
0010
0000
0000
0100
0000
0010
0001
0000
0100
0000
,  // measure 48
0100
0000
0000
0010
0000
0001
0100
0000
0000
0010
0000
0000
0100
0000
0001
0100
,  // measure 49
0001
0000
0000
0100
0000
0010
0100
0000
0000
0001
0000
0100
0010
0000
0001
0000
,  // measure 50
0010
0000
0000
0001
0000
0100
1000
0000
0000
0100
0000
0000
0010
0000
0100
0001
,  // measure 51
1000
0000
0000
0100
0000
0001
0100
0000
0000
0010
0000
0100
0001
0000
1000
0000
;
