#TITLE:turn the lights off;
#SUBTITLE:;
#ARTIST:Juste, Jaxstyle, & Jon;
#TITLETRANSLIT:;
#SUBTITLETRANSLIT:;
#ARTISTTRANSLIT:;
#GENRE:;
#CREDIT:;
#BANNER:;
#BACKGROUND:;
#LYRICSPATH:;
#CDTITLE:;
#MUSIC:turn the lights off.ogg;
#OFFSET:0.000000;
#SAMPLESTART:0.059886;
#SAMPLELENGTH:12.000000;
#SELECTABLE:YES;
#BPMS:0.000000=138.000000
;
#STOPS:
;
#BGCHANGES:;
#KEYSOUNDS:;
#ATTACKS:;

//---------------dance-single - ----------------
#NOTES:
     dance-single:
     :
     Hard:
     11:
     0.443958,0.512680,0.067559,0.067559,0.000000,506.000000,495.000000,11.000000,11.000000,0.000000,0.000000,0.443958,0.512680,0.067559,0.067559,0.000000,506.000000,495.000000,11.000000,11.000000,0.000000,0.000000:
// measure 0
0000
0000
0000
0000
,  // measure 1
0000
0000
0000
0000
,  // measure 2
0000
0000
0000
0000
,  // measure 3
0000
0000
0000
0000
,  // measure 4
0000
0000
0000
0000
,  // measure 5
2000
0000
0000
0000
,  // measure 6
0000
0000
3000
0100
,  // measure 7
1000
0100
0000
0001
0000
0000
0000
0000
,  // measure 8
0000
0000
0000
0000
,  // measure 9
0200
0000
0000
0000
,  // measure 10
0300
0000
0100
0001
1000
0100
0000
0001
,  // measure 11
0000
0000
0000
0000
,  // measure 12
0000
0000
0000
0000
0000
0000
0000
0100
,  // measure 13
0002
0000
0000
0000
,  // measure 14
0000
0000
0000
0000
0003
0100
0001
1000
,  // measure 15
0001
0100
0000
0010
0000
0000
0000
0000
,  // measure 16
0000
0000
0000
0000
,  // measure 17
0200
0000
0000
0000
,  // measure 18
0000
0000
0300
0001
1000
0100
0000
0010
,  // measure 19
0011
0000
0110
0000
,  // measure 20
1001
0000
0110
0000
1001
0001
0100
0000
,  // measure 21
0100
0010
0100
0010
1000
0100
0001
0010
,  // measure 22
0001
0100
0001
1000
0001
0010
0100
0001
,  // measure 23
0100
0010
0100
0010
0100
0100
1000
0010
,  // measure 24
0100
0010
0100
0100
0010
0100
0100
1000
,  // measure 25
0100
0100
0100
0100
1000
0100
0010
0001
,  // measure 26
0100
0001
0100
0001
0100
1000
0100
0010
,  // measure 27
0001
0100
0001
0100
0001
0100
0001
0100
,  // measure 28
0010
0001
1000
0001
0100
0010
0001
0100
,  // measure 29
0001
0100
0010
0001
0100
0001
0100
0010
,  // measure 30
0001
1000
0001
0100
0001
0100
0010
0001
,  // measure 31
0100
0001
0100
0010
0001
0100
0001
0100
,  // measure 32
0010
0100
1000
0100
0010
0100
0100
1000
,  // measure 33
0100
0010
0100
0010
0100
0010
0010
0100
,  // measure 34
1000
0100
0010
0100
0010
0100
0010
0100
,  // measure 35
0001
1000
0001
0100
0010
0001
0100
0001
,  // measure 36
0100
0010
0001
0100
0001
0100
0010
0001
,  // measure 37
1000
0001
0100
0010
0001
0100
0001
0100
,  // measure 38
1000
0010
0001
1000
0001
0100
0010
0001
,  // measure 39
0100
0001
0100
0001
0100
0010
0001
0100
,  // measure 40
0001
0100
0010
0001
1000
0001
0100
0010
,  // measure 41
0001
0100
0001
0100
0001
0100
0010
0001
,  // measure 42
1000
0001
0100
0010
0001
0100
0001
0100
,  // measure 43
0010
0001
0100
0001
0100
1000
0001
0100
,  // measure 44
0001
0100
0010
0001
0100
0001
0100
0001
,  // measure 45
0100
0010
0100
0001
0100
0001
0100
0100
,  // measure 46
1000
0001
0100
0010
0001
1000
0001
0100
,  // measure 47
0010
0001
0100
0001
0100
0010
0001
0100
,  // measure 48
0001
0100
0010
0001
1000
0001
0100
0010
,  // measure 49
0200
0000
0000
0000
,  // measure 50
0000
0000
0300
0100
0001
1000
0000
0100
,  // measure 51
0000
0000
0000
0000
,  // measure 52
0000
0000
0000
0000
0000
1000
0100
0010
,  // measure 53
0200
0000
0000
0000
,  // measure 54
0300
0000
0010
0100
0001
1000
0100
0001
,  // measure 55
0010
0100
0000
0000
,  // measure 56
0000
0000
0000
0000
0000
0000
0000
1000
,  // measure 57
0200
0000
0000
0000
,  // measure 58
0300
0000
0100
0001
1000
0001
0000
0100
,  // measure 59
0000
0000
0000
0000
,  // measure 60
0000
0000
0000
0000
0000
1000
0100
0001
,  // measure 61
2002
0000
0000
0000
,  // measure 62
3003
0010
0100
0001
1000
0100
0001
0010
,  // measure 63
1000
0100
0000
0000
,  // measure 64
0000
0000
0000
0000
0000
0000
0000
0010
,  // measure 65
0200
0000
0000
0000
,  // measure 66
0300
0001
0100
0010
0001
0100
0000
1000
,  // measure 67
0110
0000
0101
0000
,  // measure 68
1001
0000
0110
0000
1001
0001
1000
0001
,  // measure 69
0010
0010
0001
1000
0001
0100
0001
0100
,  // measure 70
0010
0001
1000
0001
0100
0010
0001
0100
,  // measure 71
0001
0100
0010
0001
0100
0001
0100
0001
,  // measure 72
0100
0010
0001
1000
0001
0100
0001
0100
,  // measure 73
1000
0100
0010
0001
0100
0001
0100
0010
,  // measure 74
0001
0100
0100
1000
0100
0100
0010
0100
,  // measure 75
0100
1000
0100
0100
0010
0100
0100
1000
,  // measure 76
0100
0010
0001
0100
0001
0100
0010
0001
,  // measure 77
0100
0001
0100
1000
0010
0100
0010
0100
,  // measure 78
0010
0100
0010
0001
0010
0100
1000
0100
,  // measure 79
0010
0100
0010
0100
0010
0001
0100
0001
,  // measure 80
0100
0010
0001
0100
0001
0100
1000
0100
,  // measure 81
0010
0001
0100
0001
0100
0010
0001
0100
,  // measure 82
0001
0100
0010
0001
0100
0001
0100
1000
,  // measure 83
0100
0010
0001
0100
0001
0100
0010
0001
,  // measure 84
0100
0001
0100
0010
0001
1000
0001
0100
,  // measure 85
0010
0001
0100
0001
0100
0010
0001
0100
,  // measure 86
0001
0100
0010
0001
1000
0001
0100
0010
,  // measure 87
0001
0100
0001
0100
0010
0001
1000
0001
,  // measure 88
0100
0010
0001
0100
0001
0100
0001
0100
,  // measure 89
0010
0001
1000
0001
0100
0010
0001
0100
,  // measure 90
0001
0100
0010
0001
1000
0001
0100
0010
,  // measure 91
0100
0001
0100
0001
0100
1000
0001
0010
,  // measure 92
0100
0001
0200
0300
;
