#VERSION:0.83;
#TITLE:traffik;
#SUBTITLE:;
#ARTIST:Kaarija & Joost;
#TITLETRANSLIT:;
#SUBTITLETRANSLIT:;
#ARTISTTRANSLIT:;
#GENRE:;
#ORIGIN:;
#CREDIT:;
#BANNER:;
#BACKGROUND:;
#PREVIEWVID:;
#JACKET:;
#CDIMAGE:;
#DISCIMAGE:;
#LYRICSPATH:;
#CDTITLE:;
#MUSIC:TRAFIK! LYRIC VIDEO Käärijä & Joost Klein (Unofficial).ogg;
#OFFSET:0.000000;
#SAMPLESTART:100.059883;
#SAMPLELENGTH:12.000000;
#SELECTABLE:YES;
#BPMS:0.000=165.000,
28.000=82.500,
44.000=165.000;
#STOPS:28.000=1.500,
82.000=0.400,
97.000=0.350,
180.000=0.700,
194.000=0.400,
205.000=0.300,
309.000=0.200,
311.000=0.100,
313.000=0.100,
314.000=0.100,
315.500=0.100;
#DELAYS:;
#WARPS:;
#TIMESIGNATURES:0.000=4=4;
#TICKCOUNTS:0.000=4;
#COMBOS:0.000=1;
#SPEEDS:0.000=1.000=0.000=0;
#SCROLLS:0.000=1.000;
#FAKES:;
#LABELS:0.000=Song Start;
#BGCHANGES:;
#KEYSOUNDS:;
#ATTACKS:
;

//---------------dance-single - ----------------
#NOTEDATA:;
#CHARTNAME:;
#STEPSTYPE:dance-single;
#DESCRIPTION:;
#CHARTSTYLE:;
#DIFFICULTY:Hard;
#METER:15;
#RADARVALUES:0.722807,1.034179,0.507480,0.068169,0.518841,668.000000,601.000000,67.000000,9.000000,0.000000,0.000000,0.000000,0.000000,0.000000,0.722807,1.034179,0.507480,0.068169,0.518841,668.000000,601.000000,67.000000,9.000000,0.000000,0.000000,0.000000,0.000000,0.000000;
#CREDIT:;
#NOTES:
// measure 0
0000
0000
0000
0000
,  // measure 1
0000
0000
0000
0000
,  // measure 2
1001
0000
0010
0100
0001
0010
1001
0000
,  // measure 3
1001
0000
0010
0001
0100
1000
0001
0000
,  // measure 4
1001
0000
1000
0001
0100
0010
1001
0000
,  // measure 5
1001
0000
0010
0001
1000
0001
0100
0010
,  // measure 6
1001
0000
0001
1000
0001
0100
0000
0000
,  // measure 7
0000
0000
0001
0100
1000
0010
0000
0100
0010
0001
0100
0001
1000
0100
0010
0001
,  // measure 8
1000
0001
0100
0001
1000
0100
0000
0100
0010
0001
1000
0001
0100
1000
0000
0000
,  // measure 9
0100
0001
1000
0000
0010
0100
0000
0000
0010
0001
1000
0001
0100
1000
0000
0100
,  // measure 10
0010
0000
0001
0000
1000
0000
0001
0000
0100
0000
1000
0000
0000
0000
0001
0000
0100
0000
0000
0000
0010
0000
0100
0000
0001
0000
1000
0000
0100
0001
0100
0000
,  // measure 11
0010
0000
0000
0100
0000
0000
0010
0100
,  // measure 12
0001
1000
0100
0000
0002
0000
0003
0000
,  // measure 13
0010
0000
0100
0001
1000
0010
0001
0100
,  // measure 14
0001
1000
0100
0000
0020
0000
0030
0000
,  // measure 15
0101
0000
0000
1001
0000
0000
0001
1000
,  // measure 16
0001
0100
1000
0000
0100
0000
0001
0100
,  // measure 17
0001
0000
0000
1000
0100
0000
0001
0000
0010
0100
0000
0001
1000
0000
0010
0000
,  // measure 18
0001
0100
0000
0000
0010
0100
0000
0001
1000
0100
0000
0000
0010
0000
0100
0000
,  // measure 19
1001
0000
0010
0100
0001
1000
1001
0000
,  // measure 20
1001
0000
0010
0100
0001
0000
1001
0000
,  // measure 21
1000
0001
0100
0001
1100
0000
0110
0000
,  // measure 22
0001
1000
0001
0100
1000
0000
0010
0000
,  // measure 23
0001
1000
0001
0100
1010
0000
0101
0000
,  // measure 24
1000
0100
0001
0000
1001
0000
0001
0100
,  // measure 25
1000
0001
0110
0000
0110
0000
1000
0001
,  // measure 26
0100
0010
1001
0000
0101
0000
0110
0000
,  // measure 27
0101
0000
0000
0000
0101
0000
0000
0000
0001
0100
0010
0001
0100
0001
0100
0010
,  // measure 28
0001
1000
0001
0100
0010
0001
0100
0001
0100
0010
0001
1000
0001
0100
0010
0001
,  // measure 29
1000
0001
0100
0010
0001
1000
0001
0100
1000
0001
0100
0010
0001
1000
0001
0100
,  // measure 30
0010
0001
0100
0001
0100
0010
0001
1000
0001
0100
0010
0001
1000
0001
0100
0010
,  // measure 31
0001
1000
0001
0100
1000
0000
0000
0000
0100
0010
0001
1000
0001
0100
0010
0001
,  // measure 32
0100
0001
0100
0010
0001
1000
0001
0100
0010
0001
1000
0001
0100
0010
0001
1000
,  // measure 33
0001
0100
0010
0001
1000
0001
0100
0010
0001
0100
0001
0100
0010
0001
1000
0001
,  // measure 34
0100
0001
0100
0001
0100
0010
0001
1000
0001
0100
1000
0001
0010
0100
0001
0010
,  // measure 35
1000
0100
0000
0000
0010
0100
0000
0000
0101
0000
0000
0000
0000
0000
0110
0000
,  // measure 36
0000
0000
0001
1000
0001
0100
1000
0000
,  // measure 37
0200
0000
0300
0000
0100
0000
0010
0001
,  // measure 38
0100
0010
0001
1000
0001
0100
1000
0000
,  // measure 39
0010
0000
0000
0000
0101
0000
0000
1100
,  // measure 40
0000
0000
0001
1000
0001
0100
1000
0000
,  // measure 41
1000
0000
0000
0000
0001
0000
0100
0000
1000
0000
0000
0100
0010
0000
0001
0000
,  // measure 42
1000
0100
0000
0001
0010
0000
0100
0000
1000
0010
0000
0000
0100
0001
0000
0000
,  // measure 43
0010
0001
0000
0000
1000
0000
0100
0000
1001
0000
0000
0000
0010
0000
0100
0000
,  // measure 44
0001
1000
1001
0000
1001
0000
1000
0100
,  // measure 45
0000
0000
1000
0001
0100
0010
1001
0000
,  // measure 46
0101
0000
0001
1000
0001
0000
0000
0000
,  // measure 47
0110
0000
1000
0001
0100
0010
0101
0000
,  // measure 48
1100
0000
0001
0100
0001
0000
1001
0000
,  // measure 49
0010
0001
0100
0010
1001
0000
0110
0000
,  // measure 50
0100
1000
0001
0100
1000
0000
0000
0000
,  // measure 51
0101
0000
0101
0000
0001
0100
0001
0100
,  // measure 52
0010
0001
1000
0001
0100
0010
0001
1000
,  // measure 53
0001
0100
0001
1000
0100
0001
0100
0010
,  // measure 54
0001
1000
0001
0100
2000
0000
0000
0000
,  // measure 55
0000
3000
0101
0101
,  // measure 56
0110
0000
0100
0010
0101
1000
0001
0100
,  // measure 57
1100
0000
0010
0001
1000
0001
0100
0010
,  // measure 58
1001
0000
0100
0010
0101
0100
1100
0100
,  // measure 59
0202
0000
0000
0000
0303
0000
0000
0000
0110
0000
0000
0000
0001
0100
0001
0100
,  // measure 60
0010
0001
0100
0001
0100
0010
0001
1000
0001
0100
0010
0001
0100
0001
0100
0010
,  // measure 61
0001
1000
0001
0100
1000
0000
0000
0000
1001
0000
0000
0000
0001
0010
0100
0000
,  // measure 62
0000
0000
0001
1000
0100
0000
0000
0000
0010
0000
0200
0000
0000
0000
0000
0000
,  // measure 63
0300
0000
0101
0000
0110
0000
0110
0101
,  // measure 64
0000
0000
0010
0001
1000
0001
0100
0000
,  // measure 65
1000
0000
0000
0000
0101
0000
1000
0100
,  // measure 66
0001
0100
1000
0001
0100
0010
1000
0100
,  // measure 67
0001
0000
1001
0000
0110
0000
1001
1001
,  // measure 68
0000
0000
0001
1000
0001
0100
1000
0000
,  // measure 69
0100
0000
0000
0000
0000
0000
0010
0000
0100
0000
0000
0001
1000
0000
0100
0000
,  // measure 70
0001
0010
0000
0100
0001
0000
1000
0000
0100
0001
0000
0000
0010
0100
0000
0010
,  // measure 71
0100
0001
0000
0000
1001
0000
0100
0000
0010
0000
0100
0000
0001
0000
1000
0000
,  // measure 72
1000
0100
0001
1000
0001
0000
0010
0000
0100
0000
0001
0000
0100
0000
0010
0000
,  // measure 73
0001
1000
0001
0100
1000
0000
0100
0000
0001
0000
0000
0010
0100
0000
0001
0000
,  // measure 74
1000
0100
0000
0001
0010
0000
0100
0000
0001
1000
0000
0000
0100
0001
0000
0010
,  // measure 75
0100
0001
0000
0000
1000
0000
0100
0000
0001
0000
0001
0000
0100
0000
0010
0000
,  // measure 76
0001
1000
0001
0100
1000
0000
0001
0000
1000
0000
0001
0000
0100
0000
0010
0000
,  // measure 77
0001
1000
0001
0100
1000
0000
0000
0000
0001
0000
0010
0000
0100
0000
1001
0000
,  // measure 78
1000
0001
1001
0100
0001
1001
0100
0001
,  // measure 79
0000
0000
0010
0010
0000
0000
0010
0000
,  // measure 80
0010
0110
0000
0000
,  // measure 81
0000
0100
0001
0010
0000
0000
0000
0000
,  // measure 82
2000
0000
0200
3300
;
