#VERSION:0.83;
#TITLE:toy;
#SUBTITLE:;
#ARTIST:ILYSM;
#TITLETRANSLIT:;
#SUBTITLETRANSLIT:;
#ARTISTTRANSLIT:;
#GENRE:;
#ORIGIN:;
#CREDIT:;
#BANNER:;
#BACKGROUND:;
#PREVIEWVID:;
#JACKET:;
#CDIMAGE:;
#DISCIMAGE:;
#LYRICSPATH:;
#CDTITLE:;
#MUSIC:Toy.ogg;
#OFFSET:0.000000;
#SAMPLESTART:100.059883;
#SAMPLELENGTH:12.000000;
#SELECTABLE:YES;
#BPMS:0.000=136.000;
#STOPS:;
#DELAYS:;
#WARPS:;
#TIMESIGNATURES:0.000=4=4;
#TICKCOUNTS:0.000=4;
#COMBOS:0.000=1;
#SPEEDS:0.000=1.000=0.000=0;
#SCROLLS:0.000=1.000;
#FAKES:;
#LABELS:0.000=Song Start;
#BGCHANGES:;
#KEYSOUNDS:;
#ATTACKS:
;

//---------------dance-single - ----------------
#NOTEDATA:;
#CHARTNAME:;
#STEPSTYPE:dance-single;
#DESCRIPTION:;
#CHARTSTYLE:;
#DIFFICULTY:Hard;
#METER:11;
#RADARVALUES:0.523657,0.540006,0.242068,0.242068,0.017291,424.000000,396.000000,28.000000,28.000000,0.000000,0.000000,0.000000,0.000000,0.000000,0.523657,0.540006,0.242068,0.242068,0.017291,424.000000,396.000000,28.000000,28.000000,0.000000,0.000000,0.000000,0.000000,0.000000;
#CREDIT:;
#NOTES:
// measure 0
0000
0000
0000
0000
,  // measure 1
0000
0000
0000
0000
,  // measure 2
0000
0000
0000
0000
,  // measure 3
0000
0000
0000
0000
,  // measure 4
0010
0001
0100
0010
0001
1000
0001
0100
,  // measure 5
0010
0001
0100
0001
0100
0010
0001
0100
,  // measure 6
0001
0100
0010
0001
1000
0001
0100
0010
,  // measure 7
0001
0100
0001
0100
0010
0001
0100
0001
,  // measure 8
0100
0010
0001
0100
0001
1000
0100
0010
,  // measure 9
0100
0010
0100
1000
0100
0010
0100
0010
,  // measure 10
0100
0001
0010
0001
0100
0010
0001
0100
,  // measure 11
0001
0100
0010
0001
1000
0001
0100
0010
,  // measure 12
0001
0100
0001
0100
0010
0001
1000
0001
,  // measure 13
0100
0010
0001
0100
0001
0100
0001
0100
,  // measure 14
0010
0001
1000
0001
0100
0010
0001
0100
,  // measure 15
0001
0100
0010
0001
1000
0001
0100
0010
,  // measure 16
0000
0220
0000
0330
0001
0000
0100
0000
,  // measure 17
0000
0220
0000
0330
0001
0000
0100
0000
,  // measure 18
0000
0220
0000
0330
0010
0000
0001
0100
,  // measure 19
1001
0101
0110
1001
,  // measure 20
0000
0220
0000
0330
0010
0000
0100
0000
,  // measure 21
0000
0220
0000
0330
0001
0000
0100
0001
,  // measure 22
0100
0010
0001
0100
0000
0000
0001
0100
,  // measure 23
1000
0000
0000
0001
0000
0000
0010
0000
0000
0000
0010
0000
0100
0000
0001
0000
,  // measure 24
1001
0010
0100
0001
,  // measure 25
0001
0100
0001
0100
,  // measure 26
0010
0001
1000
0001
0100
0001
0100
0010
,  // measure 27
1001
0000
0000
0001
0000
0000
0010
0000
0001
0000
1000
0000
0001
0000
0100
0000
,  // measure 28
1000
0202
0000
0303
0010
0000
0100
0000
,  // measure 29
0110
0110
0010
0100
0001
1000
0001
0010
,  // measure 30
0100
0001
1000
0001
0010
0010
0001
0100
,  // measure 31
0010
0001
0100
0001
0100
0010
0001
1000
,  // measure 32
0001
0100
0010
0001
0100
0001
0100
0010
,  // measure 33
0001
1000
0001
0100
0010
0001
0100
0001
,  // measure 34
0100
0010
0100
0001
0100
0010
0001
1000
,  // measure 35
0001
0100
0010
0001
0100
0001
0100
0010
,  // measure 36
0001
0100
0001
0100
0010
0001
1000
0001
,  // measure 37
0100
0010
0001
0100
0001
0100
0010
0001
,  // measure 38
0100
0001
0100
0010
0001
1000
0001
0100
,  // measure 39
0001
0100
0010
0001
0100
0001
0010
0100
,  // measure 40
0010
0100
1000
0100
0010
0100
0100
0100
,  // measure 41
0100
0010
1000
0010
0100
0010
0100
0010
,  // measure 42
0100
0010
0001
0100
0001
0100
0010
0100
,  // measure 43
1000
0100
0010
0100
0010
0100
0010
0010
,  // measure 44
0100
0001
0010
1000
0010
0100
0010
0100
,  // measure 45
0010
0100
0010
0100
1000
0100
0010
0100
,  // measure 46
0001
0100
0010
0001
1000
0001
0100
0010
,  // measure 47
0001
0100
0001
0100
0010
0001
0100
0001
,  // measure 48
0100
0010
0001
0100
0001
0100
0010
0001
,  // measure 49
1000
0001
0100
0010
0001
0100
0001
0100
,  // measure 50
0010
0001
0100
0001
0100
0010
0001
0100
,  // measure 51
0001
0100
0010
0001
1000
0001
0100
0010
,  // measure 52
0101
0220
0000
0330
0010
0000
0001
0000
,  // measure 53
0000
0220
0000
0330
0001
0000
0010
0010
,  // measure 54
0001
0100
0001
0100
0000
0000
0010
0100
,  // measure 55
0001
0000
0000
0100
0000
0000
0010
0000
0001
0000
1000
0000
0001
0000
0100
0000
,  // measure 56
0000
0220
0000
0330
0001
0000
1000
0000
,  // measure 57
0000
0220
0000
0330
0010
0000
0001
0000
,  // measure 58
0000
2002
0000
3003
0100
0000
0010
0000
,  // measure 59
0110
1100
0101
0101
,  // measure 60
0101
0202
0000
0303
0010
0000
0100
0000
,  // measure 61
0000
0220
0000
0330
0001
0000
1000
0100
,  // measure 62
0010
0001
0100
1000
0000
0000
0100
0010
,  // measure 63
0001
0000
0000
0100
0000
0000
0100
0000
0010
0000
0001
0000
0100
0000
1000
0000
,  // measure 64
2002
0000
0000
0000
,  // measure 65
0000
0000
0000
3003
;
