#TITLE:tough love;
#SUBTITLE:;
#ARTIST:Magdalene;
#TITLETRANSLIT:;
#SUBTITLETRANSLIT:;
#ARTISTTRANSLIT:;
#GENRE:;
#CREDIT:;
#BANNER:;
#BACKGROUND:;
#LYRICSPATH:;
#CDTITLE:;
#MUSIC:Magdalene - Tough Love (Official Video).ogg;
#OFFSET:0.000000;
#SAMPLESTART:100.059883;
#SAMPLELENGTH:12.000000;
#SELECTABLE:YES;
#BPMS:0.000000=120.000000
;
#STOPS:0.000000=0.200000
;
#BGCHANGES:0.000=Magdalene - Tough Love (Official Video).mp4=1.000=0=0=1=====,
99999=-nosongbg-=1.000=0=0=0 // don't automatically add -songbackground-
;
#KEYSOUNDS:;
#ATTACKS:;

//---------------dance-single - ----------------
#NOTES:
     dance-single:
     :
     Hard:
     11:
     0.459624,0.442790,0.112608,0.000000,0.045579,600.000000,579.000000,21.000000,0.000000,0.000000,0.000000,0.459624,0.442790,0.112608,0.000000,0.045579,600.000000,579.000000,21.000000,0.000000,0.000000,0.000000:
// measure 0
0000
0000
0000
0000
,  // measure 1
0000
0000
0000
0000
,  // measure 2
0000
0000
0000
0000
,  // measure 3
0100
0010
0100
0010
,  // measure 4
1001
0000
0100
0010
0001
0100
0001
0100
,  // measure 5
1000
0010
0001
0100
0001
1000
0100
0000
,  // measure 6
0110
0100
0001
0100
0010
0001
1000
0001
,  // measure 7
0100
0010
0001
0100
0001
0100
1000
0000
,  // measure 8
0101
0001
0100
0010
0100
0001
0100
0010
,  // measure 9
0001
1000
0001
0100
0010
0001
0100
0000
,  // measure 10
0110
0010
0100
0001
0100
0001
0100
1000
,  // measure 11
0001
0100
0010
0001
0100
0000
1000
0000
,  // measure 12
0010
0001
1000
0001
0100
0010
0100
0001
,  // measure 13
0100
0000
0001
0100
0001
0100
1000
0000
,  // measure 14
0100
0010
0001
0100
0001
0100
0001
1000
,  // measure 15
0100
0010
0001
0100
0001
0010
0100
0000
,  // measure 16
0010
0001
1000
0001
0100
0010
0001
0100
,  // measure 17
1000
0000
0001
0100
0001
1000
0100
0000
,  // measure 18
0100
0010
0001
0100
0001
1000
0100
0100
,  // measure 19
0010
0001
0100
0001
1000
0000
0100
0000
,  // measure 20
0010
0001
0100
0001
0100
0010
0100
0001
,  // measure 21
0100
1000
0001
0100
0010
0001
0100
0001
,  // measure 22
0100
0010
0001
0100
0001
0100
0010
0001
,  // measure 23
0100
0001
0100
0010
0001
0100
0001
0100
,  // measure 24
0010
0001
1000
0001
0100
0010
0001
0100
,  // measure 25
0001
0100
0010
0001
1000
0001
0100
0010
,  // measure 26
0001
0000
0100
0000
0100
0001
0100
0010
,  // measure 27
0100
0010
0001
0100
0001
0100
1000
0000
,  // measure 28
0010
0100
0001
0000
0000
0000
0010
0001
,  // measure 29
0100
0000
0001
0100
,  // measure 30
0001
0100
1000
0000
0000
0100
0001
1000
,  // measure 31
0100
0010
0001
0100
1000
0000
0010
0000
,  // measure 32
0001
0000
0101
0000
0000
0000
0010
0001
,  // measure 33
0100
0000
0100
1000
,  // measure 34
0001
0100
1000
0000
0000
0000
1000
0001
,  // measure 35
0100
0000
0001
0010
0100
0000
0010
0000
,  // measure 36
0110
0010
0001
1000
0001
0000
0100
0000
,  // measure 37
0100
0010
0001
1000
0001
0100
0001
0100
,  // measure 38
1001
0010
0100
0010
0001
0100
0001
0100
,  // measure 39
1000
0010
0100
0010
0001
0100
0001
0100
,  // measure 40
1000
0100
0010
0100
0001
0000
0100
0000
,  // measure 41
0100
0010
0001
1000
0001
0000
0100
0000
,  // measure 42
0010
0001
1000
0001
0100
0000
0010
0000
,  // measure 43
0100
0001
0100
0000
1000
0000
0100
0000
,  // measure 44
0010
0000
0000
0000
0100
0000
0000
0001
0000
0010
0100
0000
0000
0000
0010
0000
,  // measure 45
0100
0000
0000
0000
0001
0000
0000
0010
0000
0100
0001
0000
1000
0000
0000
0000
,  // measure 46
0100
0000
0000
0000
0100
0000
0000
0100
0000
0010
0001
0000
0000
0000
0010
0000
,  // measure 47
0001
1000
0100
0000
0010
0000
0000
0100
0000
1000
0001
0000
0100
0000
0000
0000
,  // measure 48
0110
0000
1000
0100
0001
0100
0001
0010
,  // measure 49
0001
0100
0010
0001
1000
0001
0100
0000
,  // measure 50
1001
0100
0010
0100
0001
0100
0010
0001
,  // measure 51
1000
0000
0001
0000
0100
0000
0010
0000
0001
0000
0000
1000
0100
0000
0000
0000
,  // measure 52
0101
0010
0001
0100
1000
0000
0100
0010
,  // measure 53
1001
0100
0010
0100
0001
0100
1000
0000
,  // measure 54
0101
0100
0100
0010
0001
0100
0001
1000
,  // measure 55
0100
0001
1000
0001
0100
0000
0010
0000
,  // measure 56
0101
0010
0001
0100
1000
0010
0001
1000
,  // measure 57
0010
0000
0100
0010
0001
0100
1000
0000
,  // measure 58
0010
0100
0001
0100
0010
0001
1000
0001
,  // measure 59
0100
0010
0001
0100
0001
0100
1000
0000
,  // measure 60
0001
0100
0001
0100
1000
0010
0001
0100
,  // measure 61
1000
0000
0001
0100
0001
0100
1000
0000
,  // measure 62
0010
0001
0100
0010
0001
0100
0001
0100
,  // measure 63
0010
0001
0100
0001
1000
0000
0100
0000
,  // measure 64
0001
0100
0010
0001
0100
0001
1000
0100
,  // measure 65
0010
0100
0001
1000
0001
0010
0100
0001
,  // measure 66
0100
0001
0010
0100
0001
0010
0100
0010
,  // measure 67
0001
0100
0001
0100
0010
0001
1000
0001
,  // measure 68
0100
0010
0001
0100
0001
0100
0010
0001
,  // measure 69
1000
0001
0100
0010
0001
0100
0001
0100
,  // measure 70
0001
0000
0010
0000
0001
0100
0001
0100
,  // measure 71
1000
0001
0100
0001
0100
0000
0000
0000
,  // measure 72
1000
0001
0100
0000
0000
0000
0010
0001
,  // measure 73
1000
0000
0001
0110
,  // measure 74
0110
0010
1000
0000
0000
0100
0001
0100
,  // measure 75
1000
0001
0100
0001
0100
0000
1000
0000
,  // measure 76
0100
0000
0110
0000
0000
0000
0010
0001
,  // measure 77
0100
0000
0100
1000
,  // measure 78
0001
0100
1000
0000
0000
0000
0010
0001
,  // measure 79
0100
0000
0010
0001
0100
0000
0010
0000
,  // measure 80
0110
0001
0100
0001
0100
0000
1000
0000
,  // measure 81
0000
0010
0001
1000
0001
0100
0010
0000
,  // measure 82
1001
0100
0010
0100
0001
1000
0100
0001
,  // measure 83
0100
0010
0001
0100
0001
0100
1000
0000
,  // measure 84
0000
0001
0100
0001
0100
0000
1000
0000
,  // measure 85
1000
0100
0001
0100
0001
0000
0100
0000
,  // measure 86
0000
0010
0100
0001
0100
0000
1000
0000
,  // measure 87
0001
0100
1000
0000
0010
0000
0100
0000
,  // measure 88
0100
0000
0000
0000
0001
0000
0000
0010
0000
0100
0001
0000
0100
0000
0000
0000
,  // measure 89
0010
0000
0100
0000
0001
0000
0000
1000
0000
0100
0001
0000
0010
0000
0000
0000
,  // measure 90
0100
0000
0000
0000
0100
0000
0000
1000
0000
0010
0100
0000
0001
0000
0000
0000
,  // measure 91
1000
0100
0001
0000
0110
0000
0000
0000
0110
0000
0000
0000
0101
0000
0000
0000
;
