#TITLE:thief of hearts;
#SUBTITLE:;
#ARTIST:Madonna;
#TITLETRANSLIT:;
#SUBTITLETRANSLIT:;
#ARTISTTRANSLIT:;
#GENRE:;
#CREDIT:;
#BANNER:;
#BACKGROUND:;
#LYRICSPATH:;
#CDTITLE:;
#MUSIC:Thief of Hearts.ogg;
#OFFSET:0.000000;
#SAMPLESTART:100.059883;
#SAMPLELENGTH:12.000000;
#SELECTABLE:YES;
#BPMS:0.000000=118.000000
;
#STOPS:0.000000=0.250000
;
#BGCHANGES:;
#KEYSOUNDS:;
#ATTACKS:;

//---------------dance-single - ----------------
#NOTES:
     dance-single:
     :
     Hard:
     12:
     0.421578,0.632052,0.061766,0.000000,0.269369,860.000000,842.000000,18.000000,0.000000,0.000000,0.000000,0.421578,0.632052,0.061766,0.000000,0.269369,860.000000,842.000000,18.000000,0.000000,0.000000,0.000000:
// measure 0
0000
0000
0000
0000
,  // measure 1
0000
0000
0000
0000
,  // measure 2
0000
0000
0000
0000
,  // measure 3
0000
0000
0000
0000
,  // measure 4
1001
0000
0000
0000
0000
0000
0000
0000
0000
1001
0000
0000
0001
0000
0000
0000
,  // measure 5
0000
0100
0000
0010
,  // measure 6
0001
0100
1000
0000
0001
0100
1000
0000
,  // measure 7
0001
0100
0010
0000
0001
0100
1000
0000
,  // measure 8
0010
0001
0100
0001
0100
0001
0000
0100
,  // measure 9
0000
0000
0000
0010
0001
0100
0001
0100
,  // measure 10
1000
0101
0000
0000
0000
0000
0000
0000
,  // measure 11
0000
0000
0000
0000
,  // measure 12
0000
0101
0010
0100
0001
1000
0000
0010
,  // measure 13
0000
0000
0000
0001
0100
0001
0100
0001
,  // measure 14
0100
0101
0000
0000
0000
0000
0000
0000
,  // measure 15
0010
0001
0100
0001
0100
0001
0100
0001
0100
0001
0100
0010
0001
1000
0001
0100
,  // measure 16
1000
0000
0000
0000
0000
0000
0100
0010
,  // measure 17
0001
0000
0100
0010
0010
0001
1001
0000
,  // measure 18
0000
0000
0000
0000
,  // measure 19
0001
0100
0010
0001
0100
0001
0100
0001
0100
0001
0100
0010
0001
1000
0001
0100
,  // measure 20
1000
0100
0000
0001
0010
0000
0000
0000
,  // measure 21
0001
0100
1000
0000
0001
0100
0001
0100
,  // measure 22
1000
0010
0000
0100
0010
0000
0100
0010
,  // measure 23
0001
0100
0001
1000
0100
0000
0110
0000
,  // measure 24
0010
0001
0000
0100
0010
0000
0000
0000
,  // measure 25
0100
0010
0001
0100
1000
0010
0100
0001
,  // measure 26
0010
0100
0000
0001
0010
0000
0010
0001
,  // measure 27
0100
0010
0001
0100
0001
0100
0010
0001
1000
0001
0100
0010
0001
0100
0001
0100
,  // measure 28
1000
0010
0000
0100
0001
0000
0000
0000
,  // measure 29
0000
0010
0000
0001
0100
0010
0001
0100
,  // measure 30
0000
0100
0000
0010
0001
0000
0000
0100
,  // measure 31
0010
0001
0100
1000
0000
0001
0100
0000
,  // measure 32
0001
0100
0000
0010
0001
0000
0000
0000
,  // measure 33
0010
0001
0100
0001
0100
0001
0100
1000
,  // measure 34
0100
0010
0000
0001
0100
0000
0001
0100
,  // measure 35
0001
1000
0100
0001
0100
0001
1000
0001
0010
0100
0001
1000
0001
0010
0100
0001
,  // measure 36
0010
0000
0000
0000
,  // measure 37
0000
0000
0000
1001
,  // measure 38
0000
0000
0000
0000
0000
0001
0100
0010
,  // measure 39
0000
0000
0000
1001
,  // measure 40
1001
0001
0000
0010
0100
0000
0000
0000
,  // measure 41
0001
0100
0010
0001
0100
0001
0100
1000
,  // measure 42
0000
0010
0000
0001
0100
0000
0001
0100
,  // measure 43
0010
0001
0100
1000
0000
0100
0000
0000
,  // measure 44
0010
0001
0000
0100
0001
0000
0000
0000
,  // measure 45
0010
0001
0100
0001
0100
0001
1000
0100
,  // measure 46
0010
0001
0000
0100
0001
0000
0100
0010
,  // measure 47
0001
0100
0010
0001
0100
0001
0100
0001
0100
0001
0100
0010
0001
1000
0001
0100
,  // measure 48
1000
0001
0000
0001
0100
0000
0000
0000
,  // measure 49
0010
0001
0000
0100
0010
1000
0001
0100
,  // measure 50
1000
0100
0000
0010
0001
0000
0000
0001
,  // measure 51
0100
0010
0001
0100
0001
0100
1000
0000
,  // measure 52
0010
0001
0000
0100
1000
0000
0000
0001
,  // measure 53
0100
0010
0001
0100
0001
0100
0001
0100
,  // measure 54
1000
0010
0000
0001
0100
0000
0001
0100
,  // measure 55
0010
0001
0100
0010
0001
1000
0001
0100
0010
0001
0100
0001
0100
0010
0001
0100
,  // measure 56
1000
0000
0000
0010
0000
0000
0000
0000
,  // measure 57
0000
0100
0000
0010
0000
0000
0000
0000
,  // measure 58
0000
0000
0000
0000
,  // measure 59
0001
0100
0010
0001
0100
0001
0100
0001
0100
0001
0100
0010
1000
0100
0001
0100
,  // measure 60
0001
0000
0010
0000
0000
0000
0001
0000
0100
0000
0010
0100
0000
0000
0010
0100
,  // measure 61
0001
0010
0000
0001
0100
0010
0100
0001
,  // measure 62
0001
0000
0100
0000
0000
0000
0010
0000
0100
0000
0001
1000
0000
0000
0100
0001
,  // measure 63
0010
0000
0000
0001
0100
1000
0110
0001
,  // measure 64
0001
0000
0100
0000
0000
0000
0010
0000
0100
0000
0001
1000
0000
0000
0100
0001
,  // measure 65
0010
0010
0000
0001
0100
0010
0001
0100
,  // measure 66
0001
0000
0100
0000
0000
0000
0100
0000
0001
0000
1000
0100
0000
0000
0010
0001
,  // measure 67
0010
1000
0001
0100
0010
0001
0100
0001
0100
0001
0100
0010
0001
0100
0001
0100
,  // measure 68
1000
0001
0000
0000
0010
0000
0100
0000
,  // measure 69
0000
0000
0000
0000
0100
0001
0000
0000
0010
0000
0100
0000
0000
0000
0000
0000
,  // measure 70
0010
0001
0000
0000
0100
0010
0000
0000
,  // measure 71
0000
0000
0010
0001
0100
0000
0000
0000
,  // measure 72
0100
0010
0000
0000
0001
0000
0100
0000
,  // measure 73
0000
0000
0000
0000
0010
0000
0100
0000
0001
0000
0000
0010
0000
0000
0000
0000
,  // measure 74
0010
0001
0000
0000
0100
1000
0001
0100
,  // measure 75
0010
0001
0100
0001
0100
0001
0100
0001
0100
0001
0100
0010
0001
1000
0001
0100
,  // measure 76
1000
0100
0010
0000
0001
0100
0010
0000
,  // measure 77
1001
0100
0010
0000
0001
0100
1001
0000
,  // measure 78
0001
0100
0010
0000
0001
0100
1000
0100
,  // measure 79
0001
0010
0100
0000
0001
0100
1001
0000
,  // measure 80
0100
0001
0000
0100
1000
0000
0000
0000
,  // measure 81
0010
0001
0100
0000
0010
0001
1000
0001
,  // measure 82
0100
0010
0000
0100
0001
0010
0100
0010
,  // measure 83
0001
0100
0001
0100
0000
1000
0000
0000
,  // measure 84
0001
0100
0000
0010
0100
0000
0000
0000
,  // measure 85
0001
0100
0001
0100
0010
0000
0100
0001
,  // measure 86
0010
0100
0000
0010
0001
0000
1000
0100
,  // measure 87
0001
0010
0100
0001
1000
0001
0010
0100
0001
0100
0001
0010
0100
0001
0100
0001
,  // measure 88
0010
0100
0000
0010
0001
0000
0000
0000
,  // measure 89
0010
0001
0000
0010
0100
0001
0100
0001
,  // measure 90
1000
0100
0000
0010
0001
0000
0000
0010
,  // measure 91
0001
0100
0001
0100
1000
0001
0100
0000
,  // measure 92
0010
0001
0000
0001
0100
0000
0000
0000
,  // measure 93
0001
0100
0010
0001
0100
0001
0100
0001
,  // measure 94
1000
0100
0000
0001
0100
0000
0010
0001
,  // measure 95
0100
0010
0001
0100
0001
0100
0001
0100
0001
0001
0100
0010
0001
1000
0001
0100
,  // measure 96
1000
0000
0000
0000
,  // measure 97
0000
0000
0000
0000
,  // measure 98
0000
0000
0000
0000
,  // measure 99
0010
0001
0100
0001
0100
0001
1000
0001
0100
0000
0000
0000
0000
0000
0010
0000
,  // measure 100
0001
0000
0100
0000
0000
0000
0010
0000
0100
0000
0001
1000
0000
0000
0100
0001
,  // measure 101
0010
0010
0000
0001
0100
1000
0000
0100
,  // measure 102
0001
0000
0010
0000
0000
0000
0100
0000
0001
0000
0010
0100
0000
0000
1000
0001
,  // measure 103
0010
0000
0100
0000
0010
0001
0000
0000
0010
0000
0100
0000
0001
0000
0010
0000
,  // measure 104
0100
0000
0010
0000
0000
0000
0001
0000
0010
0000
1000
0100
0000
0000
0010
0100
,  // measure 105
0001
1000
0000
0010
0001
0100
0010
0001
,  // measure 106
0010
0000
1000
0000
0000
0000
0010
0000
0100
0000
0001
0100
0000
0000
0001
0010
,  // measure 107
0100
0001
0100
0010
0001
0100
0001
0100
0010
0001
0100
0010
0001
0100
0001
0100
,  // measure 108
1000
0010
0000
0000
0010
0000
0001
0000
,  // measure 109
0001
0000
0000
0000
0100
0001
0000
0000
0010
0000
0100
0000
0000
0000
0000
0000
,  // measure 110
0100
0010
0000
0000
0100
1000
0000
0000
,  // measure 111
0000
0010
0000
0001
0100
0000
1001
0000
,  // measure 112
0100
0001
0000
0000
0100
0000
0100
0000
,  // measure 113
0000
0000
1000
0100
0001
0010
0000
0000
,  // measure 114
0100
0010
0000
0000
0001
0100
0100
0010
,  // measure 115
0001
0100
0001
0100
0010
0001
0100
0001
0100
0001
0100
0010
0001
0100
0001
0100
,  // measure 116
1000
0100
0000
0001
0010
0000
0000
0000
,  // measure 117
0000
0000
0000
0000
,  // measure 118
0100
0010
0000
0001
0100
0000
0100
0001
,  // measure 119
1000
0001
0010
0100
0001
0010
0100
0000
,  // measure 120
0010
0001
0000
0100
1000
0000
0000
0000
,  // measure 121
0000
0000
0000
0000
,  // measure 122
0001
0100
0000
0001
0100
0000
0010
0001
,  // measure 123
0100
0010
0001
0100
0001
0100
0010
0001
1000
0001
0100
0010
0001
0100
0001
0100
,  // measure 124
1000
0010
0000
0000
0000
0000
0000
0000
,  // measure 125
0000
0000
0000
0000
,  // measure 126
0010
0001
0000
0000
0000
0000
0000
0000
,  // measure 127
0000
0000
0000
0000
0000
0100
1000
0000
,  // measure 128
0010
0001
0000
0000
0000
0000
0000
0000
,  // measure 129
0000
0000
0000
0000
,  // measure 130
0001
0100
0000
0010
0100
0000
0100
0010
,  // measure 131
0001
0000
1000
0000
0001
0000
0100
0000
0010
0000
0000
0000
0100
0001
1000
0001
,  // measure 132
0010
0110
0100
0001
0010
1000
0000
0001
,  // measure 133
0000
0000
0000
0010
0001
0100
0001
0100
,  // measure 134
1000
0101
0000
0000
0000
0000
0000
0000
,  // measure 135
0000
0000
0000
0000
,  // measure 136
0100
0001
0010
0000
0100
0000
0001
0000
0000
0000
1000
0000
0000
0000
0001
0000
,  // measure 137
0100
0001
0010
0000
0000
0000
0010
0000
0001
0000
0100
0000
0001
0000
0100
0000
,  // measure 138
1000
0101
0000
0000
0000
0000
0000
0100
,  // measure 139
0010
0001
0100
0001
0100
0001
0100
0001
0100
0001
0100
0010
0001
1000
0001
0100
,  // measure 140
1000
0010
0001
0100
0010
0001
1000
0001
0100
0000
0000
0000
0000
0000
0000
0000
,  // measure 141
0000
0010
0000
0000
0000
0100
0000
0001
0010
0000
0000
0100
0000
0000
0000
0000
;
