#TITLE:they dont love you more than i love you;
#SUBTITLE:;
#ARTIST:Remika & OVG!;
#TITLETRANSLIT:;
#SUBTITLETRANSLIT:;
#ARTISTTRANSLIT:;
#GENRE:;
#CREDIT:;
#BANNER:;
#BACKGROUND:;
#LYRICSPATH:;
#CDTITLE:;
#MUSIC:they don't love you more than i love you.ogg;
#OFFSET:0.000000;
#SAMPLESTART:100.059883;
#SAMPLELENGTH:12.000000;
#SELECTABLE:YES;
#BPMS:0.000000=120.000000
;
#STOPS:
;
#BGCHANGES:;
#KEYSOUNDS:;
#ATTACKS:;

//---------------dance-single - ----------------
#NOTES:
     dance-single:
     :
     Hard:
     11:
     0.465749,0.431850,0.359328,0.035056,0.000000,372.000000,331.000000,41.000000,4.000000,0.000000,0.000000,0.465749,0.431850,0.359328,0.035056,0.000000,372.000000,331.000000,41.000000,4.000000,0.000000,0.000000:
// measure 0
0000
0000
0000
0000
,  // measure 1
0000
0000
0000
0000
,  // measure 2
0000
0000
0000
0000
,  // measure 3
0000
0000
0000
0000
,  // measure 4
0110
0000
0000
0010
0001
0100
0001
0100
,  // measure 5
1000
0000
0100
0010
0001
0100
0000
0100
,  // measure 6
0020
0000
0030
0000
0010
0100
0000
0010
,  // measure 7
0200
0300
0001
0100
,  // measure 8
0100
0001
0100
1000
0010
0100
0010
0100
,  // measure 9
0010
0100
0010
0001
0100
0001
0100
1000
,  // measure 10
0100
0010
0100
0010
0001
0100
0001
0100
,  // measure 11
0010
0001
0100
0001
0100
0010
0001
1000
,  // measure 12
0001
0100
0010
0001
0100
0001
0100
0010
,  // measure 13
0001
0100
0001
0100
0010
0001
0100
0001
,  // measure 14
0100
0010
0001
0100
0001
0100
0010
0001
,  // measure 15
1000
0001
0100
0010
0001
0000
0100
0000
,  // measure 16
0101
0000
0001
0001
0101
0000
0100
0010
,  // measure 17
0001
0100
0001
0100
1000
0010
0001
0100
,  // measure 18
1000
0100
0010
0100
0001
0100
0010
0001
,  // measure 19
0100
0001
0100
0010
0001
0000
0001
0100
,  // measure 20
1001
0000
0010
0001
0101
0000
0010
0100
,  // measure 21
0001
0100
0001
0100
0010
0001
0100
0001
,  // measure 22
0100
0010
0001
0100
0001
0100
0010
0001
,  // measure 23
1000
0001
0100
0010
1000
0100
0001
0100
,  // measure 24
1000
0001
0000
0010
0001
0100
0010
0000
,  // measure 25
0001
0100
0000
0010
0001
0100
1000
0000
,  // measure 26
0100
0010
0000
0100
0001
0100
1000
0010
,  // measure 27
0110
0110
0110
0101
,  // measure 28
1000
0100
0000
0010
0001
0100
1000
0000
,  // measure 29
0001
0100
0000
0010
0001
0100
1000
0000
,  // measure 30
0100
0010
0001
1000
0001
0100
0010
0000
,  // measure 31
0110
0110
0101
1100
,  // measure 32
0010
0001
0100
0010
0001
0100
0001
0100
,  // measure 33
1000
0010
0001
0100
0001
0100
0010
0001
,  // measure 34
0100
0001
0100
0010
0001
1000
0001
0100
,  // measure 35
0010
0001
0100
0001
0100
0010
0001
0100
,  // measure 36
0001
0100
0010
0001
0100
0001
0100
1000
,  // measure 37
0100
0001
0100
0010
0001
0100
0001
0100
,  // measure 38
0010
0001
0100
0001
0100
0010
0001
1000
,  // measure 39
0001
0100
0010
0001
0100
0001
0100
0010
,  // measure 40
0101
0000
0100
0010
0100
0000
0010
0001
,  // measure 41
0100
0001
0100
1000
0001
0010
0100
1000
,  // measure 42
0001
0010
0100
0001
0100
0010
0100
0010
,  // measure 43
0001
0100
0001
0100
1000
0000
0100
0001
,  // measure 44
0110
0000
0010
0100
0101
0000
0010
0001
,  // measure 45
0100
0001
0100
0010
0001
0100
0001
0100
,  // measure 46
0011
0000
1000
0010
0101
0000
0110
0000
,  // measure 47
0101
0101
0220
0330
,  // measure 48
0100
0010
0000
0100
0001
0000
1001
0000
,  // measure 49
0000
0101
0000
0011
0000
0101
0101
0000
,  // measure 50
0000
0100
0000
0010
0001
0000
0101
0000
,  // measure 51
0000
0101
0000
0101
0101
0000
1001
1001
,  // measure 52
0000
0100
0000
1000
1001
0000
1001
0000
,  // measure 53
0000
0110
0000
0101
0000
0101
0101
0000
,  // measure 54
0000
0100
0000
0001
0101
0000
0110
0000
;
