#VERSION:0.83;
#TITLE:the devil;
#SUBTITLE:;
#ARTIST:Lemton;
#TITLETRANSLIT:;
#SUBTITLETRANSLIT:;
#ARTISTTRANSLIT:;
#GENRE:;
#ORIGIN:;
#CREDIT:;
#BANNER:;
#BACKGROUND:;
#PREVIEWVID:;
#JACKET:;
#CDIMAGE:;
#DISCIMAGE:;
#LYRICSPATH:;
#CDTITLE:;
#MUSIC:The Devil.ogg;
#OFFSET:0.000000;
#SAMPLESTART:100.059883;
#SAMPLELENGTH:12.000000;
#SELECTABLE:YES;
#BPMS:0.000=136.000;
#STOPS:;
#DELAYS:;
#WARPS:;
#TIMESIGNATURES:0.000=4=4;
#TICKCOUNTS:0.000=4;
#COMBOS:0.000=1;
#SPEEDS:0.000=1.000=0.000=0;
#SCROLLS:0.000=1.000;
#FAKES:;
#LABELS:0.000=Song Start;
#BGCHANGES:;
#KEYSOUNDS:;
#ATTACKS:
;

//---------------dance-single - ----------------
#NOTEDATA:;
#CHARTNAME:;
#STEPSTYPE:dance-single;
#DESCRIPTION:;
#CHARTSTYLE:;
#DIFFICULTY:Hard;
#METER:15;
#RADARVALUES:0.687440,0.926840,0.028086,0.056172,0.564062,1028.000000,1022.000000,6.000000,12.000000,0.000000,0.000000,0.000000,0.000000,0.000000,0.687440,0.926840,0.028086,0.056172,0.564062,1028.000000,1022.000000,6.000000,12.000000,0.000000,0.000000,0.000000,0.000000,0.000000;
#CREDIT:;
#NOTES:
// measure 0
0000
0000
0000
0000
,  // measure 1
0000
0000
0000
0000
,  // measure 2
0000
0000
0000
0000
0000
0000
0000
0000
0000
0000
0000
0000
0000
0000
1000
0100
,  // measure 3
0001
0000
0010
0000
0001
0000
0100
0000
0010
0000
0000
0100
0001
0010
0000
0100
,  // measure 4
0001
1000
0000
0100
0001
0010
0000
0100
0010
0001
0000
0100
0010
0100
0000
0000
,  // measure 5
0000
0000
0000
0000
,  // measure 6
0000
0000
0000
0000
0000
0000
0000
0000
0000
0000
0000
0000
0000
0000
1000
0100
,  // measure 7
0001
0010
0100
1000
0001
0000
0100
0000
,  // measure 8
0001
0100
0010
0001
,  // measure 9
0100
0010
0001
1000
,  // measure 10
0001
0000
0000
0000
0100
0000
0000
0000
0010
0000
0000
0000
0000
0000
1000
0100
,  // measure 11
0001
0000
1000
0000
0001
0000
0100
0000
0010
0000
0000
1000
0100
0001
0000
0100
,  // measure 12
0001
1000
0000
0100
0001
0010
0000
0100
0001
1000
0000
0010
0100
0001
0000
0100
,  // measure 13
0010
0100
0000
0001
0010
0100
0000
0000
0000
0000
0000
0000
0000
0000
0000
0000
,  // measure 14
0000
0000
0000
0000
0000
0000
0000
0000
0000
0000
0000
0000
0000
0000
1000
0100
,  // measure 15
0001
0100
1000
0001
0010
0000
0100
0000
,  // measure 16
0100
0010
0100
0001
0100
0010
0001
0100
0001
0100
0001
1000
0100
0000
0000
0000
,  // measure 17
0100
0010
0001
0100
0010
0001
1000
0001
0100
0010
0001
0100
1000
0000
0000
0000
,  // measure 18
0000
0000
0000
0000
0000
0000
0000
0000
0000
0000
0000
0000
0000
0000
0010
0100
,  // measure 19
0001
0000
1000
0000
0001
0000
0100
0000
0010
0000
0000
0001
0100
0010
0000
0100
,  // measure 20
0001
1000
0000
0010
0100
0001
0000
1000
0100
0001
0000
0010
0100
0001
0000
1000
,  // measure 21
0100
0001
0000
0010
0100
0001
0000
1000
0100
0001
0000
0010
0100
0001
0000
0000
,  // measure 22
0000
0000
0000
0000
0000
0000
0000
0000
0000
0000
0000
0000
0000
0000
0001
0010
,  // measure 23
0001
0010
0001
0100
0010
0000
0001
0000
,  // measure 24
0100
1000
0001
0100
,  // measure 25
0001
0100
0010
0001
,  // measure 26
1000
0000
0000
0000
0001
0000
0000
0000
0100
0000
0000
0000
0010
0000
1000
0100
,  // measure 27
0001
0100
0010
0010
1000
0001
0100
0010
,  // measure 28
0100
0010
0001
1000
0001
0100
1000
0000
,  // measure 29
0001
1000
0001
0100
,  // measure 30
0010
0000
0100
0000
0001
0000
0100
0000
0001
0000
1000
0000
0100
0000
0010
0001
,  // measure 31
0010
0000
0100
0000
1000
0000
0001
0000
0220
0000
0000
0000
0330
0000
0001
0010
,  // measure 32
0100
0100
0010
0001
0100
0001
0100
0010
,  // measure 33
0100
1000
0100
0010
0100
0001
0100
0001
,  // measure 34
0100
0000
0010
0000
0001
0000
1000
0000
0001
0000
0100
0000
0010
0000
0001
0100
,  // measure 35
1000
0000
0100
0000
0001
0000
0100
0000
0010
0000
0100
1000
0001
0100
0001
0010
,  // measure 36
0100
0001
1000
0100
0001
0100
0001
0100
0001
1000
0001
0010
0100
0001
1000
0001
,  // measure 37
0010
0100
0010
0000
0100
0000
0001
0000
1000
0000
0001
0000
0010
0000
0100
0000
,  // measure 38
0001
0000
0010
0000
0001
0000
1000
0000
0001
0000
0100
0000
0010
0000
1000
0100
,  // measure 39
0001
0010
0100
0010
1000
0010
0100
0001
,  // measure 40
0100
0001
1000
0001
0010
0100
0001
1000
,  // measure 41
0001
0010
0100
0010
0100
0001
0100
0001
,  // measure 42
0100
0000
0010
0000
0001
0000
1000
0000
0001
0000
0010
0000
0100
0000
1000
0100
,  // measure 43
0001
0000
0010
0000
0100
0000
0001
0000
1000
0000
0001
0100
0010
0100
0001
1000
,  // measure 44
0001
0010
0100
0001
0100
0001
1000
0001
0010
0100
0001
1000
0001
0010
0100
0001
,  // measure 45
0100
0010
0001
1000
0001
0100
0001
1000
,  // measure 46
0100
0000
0001
0000
1000
0000
0001
0000
0100
0000
0010
0000
0100
0000
1000
0001
,  // measure 47
0100
0010
0001
0100
0220
0000
0330
0000
,  // measure 48
0010
0001
0100
0010
0001
0100
0001
0100
0010
0001
1000
0001
0100
0010
0100
0001
,  // measure 49
1000
0010
0001
0100
0010
0001
1000
0001
0100
0010
0001
0100
0001
0100
1000
0000
,  // measure 50
0010
0000
0100
0000
0001
0000
0010
0000
0001
0000
0100
0000
0010
0000
0001
0100
,  // measure 51
1000
0000
1000
0000
0001
0000
0100
0000
0010
0000
0100
0001
0010
0100
0001
1000
,  // measure 52
0001
0010
0100
0001
1000
0001
0010
0100
0001
1000
0001
0010
0100
0001
1000
0001
,  // measure 53
0010
0100
0010
0100
1000
0100
0010
0100
,  // measure 54
0001
0000
0100
0000
0010
0000
0100
0000
0001
0000
0100
0000
0010
0000
0001
0100
,  // measure 55
1000
0001
0100
0010
0001
0100
0001
1000
,  // measure 56
0100
0001
0100
0010
0001
0100
0001
0100
,  // measure 57
0010
0001
0100
0001
0100
0001
0100
0001
,  // measure 58
0100
0000
0010
0000
0001
0000
1000
0000
0001
0000
0100
0000
0010
0000
0001
0100
,  // measure 59
1000
0000
0010
0000
0100
0000
1000
0000
0001
0000
0100
0010
1000
0100
0001
0100
,  // measure 60
0010
0100
0001
1000
0001
0010
0100
0001
1000
0001
0010
0100
0001
1000
0001
0010
,  // measure 61
0100
0001
0010
0000
0100
0000
0001
0000
1000
0000
0001
0000
0010
0000
0100
0000
,  // measure 62
0001
0000
0010
0000
0001
0000
1000
0000
0001
0000
0100
0000
0010
0000
1000
0100
,  // measure 63
0001
0100
0001
1000
2002
0000
0000
0000
,  // measure 64
0000
0000
0000
0000
,  // measure 65
0000
0000
0000
0000
,  // measure 66
0000
0000
0000
0000
0000
0000
0000
0000
0000
0000
0000
0000
3003
0000
0100
0010
,  // measure 67
0001
0000
1000
0000
0001
0000
0100
0000
0010
0000
0000
1000
0100
0001
0000
0010
,  // measure 68
0100
0001
0100
0010
1000
0001
0100
0001
1000
0001
0010
0100
0001
1000
0001
0010
,  // measure 69
0100
0001
0010
0100
0010
0100
0010
0100
0010
0100
0010
0100
0001
0100
1000
0100
,  // measure 70
0100
0010
0001
0100
0001
0100
0010
0001
1000
0001
0100
0010
0100
0001
1000
0010
,  // measure 71
0100
0001
0010
0100
0001
0000
0100
0000
,  // measure 72
0010
0001
0100
0010
,  // measure 73
0001
1000
0001
0100
,  // measure 74
0000
0000
0000
0000
0000
0000
0000
0000
0000
0000
0000
0000
0000
0000
0010
0001
,  // measure 75
0100
0001
0010
0100
0001
0100
0001
1000
,  // measure 76
0100
0010
0100
0001
1000
0001
0010
0100
0001
0100
0010
0001
0100
0010
0001
0100
,  // measure 77
0001
0100
0010
0001
0100
1000
0010
0100
0010
0100
0010
0100
0001
0100
1000
0000
,  // measure 78
0100
0000
0010
0000
0001
0000
1000
0000
0001
0000
0100
0000
0010
0000
0001
1000
,  // measure 79
0100
0000
0001
0000
0100
0000
0010
0000
2002
0000
0000
0000
3003
0000
1000
0100
,  // measure 80
0001
0100
0010
0001
1000
0001
0100
0010
,  // measure 81
0001
0100
0001
0100
0010
0001
0100
0001
,  // measure 82
0100
0000
0010
0000
0001
0000
1000
0000
0001
0000
0100
0000
0010
0000
0001
1000
,  // measure 83
0100
0000
1000
0000
0001
0000
0100
0000
0010
0000
0001
0100
0010
0001
1000
0001
,  // measure 84
0100
0001
0100
0010
0100
0010
0100
0010
0001
0100
0001
0100
0010
0100
0001
0100
,  // measure 85
1000
0010
0001
0100
0010
0001
0100
0001
,  // measure 86
0100
0000
0010
0000
0001
0000
1000
0000
0001
0000
0100
0000
0010
0000
0001
0100
,  // measure 87
1000
0001
0100
0010
0001
0100
0001
1000
,  // measure 88
0100
0100
0010
0100
0001
0100
0001
1000
,  // measure 89
0100
0010
0100
0001
1000
0001
0010
0100
,  // measure 90
0001
0000
0100
0000
0010
0000
0100
0000
0001
0000
0100
0000
0010
0000
0100
1000
,  // measure 91
0001
0000
0010
0000
0001
0000
0100
0000
0010
0000
0100
0001
0010
0100
0001
1000
,  // measure 92
0001
0010
0100
0001
1000
0001
0010
0100
0001
1000
0001
0010
0100
0001
0100
0001
,  // measure 93
0010
0100
1000
0001
0100
0010
0001
0100
,  // measure 94
0001
0000
0100
0000
0010
0000
0001
0000
1000
0000
0001
0000
0100
0000
0010
0001
,  // measure 95
0100
0010
0100
0010
2002
0000
3003
0010
,  // measure 96
0100
0010
0001
0100
0001
0100
0010
0001
1000
0001
0100
0010
0001
1000
0001
0100
,  // measure 97
1000
0100
0010
0100
0010
0100
0010
0100
,  // measure 98
0001
0000
0100
0000
0010
0000
0001
0000
1000
0000
0001
0000
0100
0000
0010
0100
,  // measure 99
0001
0000
1000
0000
0001
0000
0100
0000
0010
0000
0100
0010
0001
0100
0001
1000
,  // measure 100
0100
0100
0001
0100
0010
0001
1000
0001
0100
0010
0001
0100
0001
1000
0100
0010
,  // measure 101
0100
0001
1000
0000
0010
0000
0100
0000
0010
0000
0001
0000
0100
0000
0001
0000
,  // measure 102
0100
0000
0010
0000
0001
0000
1000
0000
0001
0000
0100
0000
0010
0000
0001
0100
,  // measure 103
1000
0010
0100
0001
0100
0010
0001
1000
,  // measure 104
0001
0100
0010
0001
0100
0001
0100
0100
,  // measure 105
1000
0100
0010
0001
0100
0001
0100
0001
,  // measure 106
0100
0000
0010
0000
0001
0000
1000
0000
0001
0000
0100
0000
0010
0000
0001
0100
,  // measure 107
1000
0000
0001
0000
1000
0000
0001
0000
0100
0000
0010
0001
1000
0001
0100
0010
,  // measure 108
0001
0100
0001
0100
0010
0001
1000
0001
0100
0010
0001
0100
0001
0100
0010
0100
,  // measure 109
1000
0001
0100
0000
0100
0000
0010
0000
0100
0000
1000
0000
0100
0000
0010
0000
,  // measure 110
0100
0000
0010
0000
0001
0000
0100
0000
0001
0000
0100
0000
0010
0000
0100
0010
,  // measure 111
1000
0001
0100
0010
2002
0000
3003
0000
,  // measure 112
0001
0100
0010
0001
1000
0001
0100
0010
,  // measure 113
0001
0100
0001
0100
0010
0001
0100
0001
,  // measure 114
0100
0010
0100
0001
0100
1000
0100
0010
,  // measure 115
0100
0010
0001
0100
0001
0100
0001
0100
,  // measure 116
0010
0001
1000
0001
0100
0010
0001
0100
,  // measure 117
0001
0100
0010
0001
0100
0001
0100
0010
,  // measure 118
0001
1000
0001
0100
0010
0001
0100
0001
,  // measure 119
0100
0000
0010
0000
0001
0000
1000
0000
0001
0000
0100
0000
0010
0000
1000
0100
,  // measure 120
0001
0000
0000
0000
;
