#TITLE:teen angst;
#SUBTITLE:;
#ARTIST:INJI;
#TITLETRANSLIT:;
#SUBTITLETRANSLIT:;
#ARTISTTRANSLIT:;
#GENRE:;
#CREDIT:;
#BANNER:;
#BACKGROUND:;
#LYRICSPATH:;
#CDTITLE:;
#MUSIC:INJI - TEEN ANGST.ogg;
#OFFSET:0.000000;
#SAMPLESTART:100.059883;
#SAMPLELENGTH:12.000000;
#SELECTABLE:YES;
#BPMS:0.000000=126.999992
;
#STOPS:0.000000=0.250000
;
#BGCHANGES:;
#KEYSOUNDS:;
#ATTACKS:;

//---------------dance-single - ----------------
#NOTES:
     dance-single:
     :
     Hard:
     12:
     0.525471,0.824086,0.448274,0.110533,0.208785,599.000000,526.000000,73.000000,18.000000,0.000000,0.000000,0.525471,0.824086,0.448274,0.110533,0.208785,599.000000,526.000000,73.000000,18.000000,0.000000,0.000000:
// measure 0
0000
0000
0000
0000
,  // measure 1
0000
0000
0000
0000
,  // measure 2
0110
0100
0010
0001
1000
0001
0100
0001
,  // measure 3
0101
0000
0110
0000
1001
0100
0010
0100
,  // measure 4
0010
0100
0010
0001
1000
0001
0100
0010
,  // measure 5
0110
0000
0110
0000
1001
0001
0010
0100
,  // measure 6
2000
0000
0000
0000
,  // measure 7
0000
0000
3000
0100
0001
1000
0001
0010
,  // measure 8
0200
0000
0000
0000
,  // measure 9
0000
0000
0000
0000
0300
0100
0001
1000
,  // measure 10
0001
0100
0010
0001
1000
0001
0100
0010
,  // measure 11
0110
0000
0110
0000
1001
0100
0010
0100
,  // measure 12
0010
0001
0100
0001
0100
0001
0100
1000
,  // measure 13
0110
0000
0110
0000
0110
0001
0100
0010
,  // measure 14
0002
0000
0000
0000
,  // measure 15
0000
0000
0003
0100
0001
0100
0001
0010
,  // measure 16
2000
0000
0000
0000
,  // measure 17
0000
0000
3000
0010
0001
1000
0001
0100
,  // measure 18
2002
0000
0000
0000
,  // measure 19
0000
0000
3003
0100
0001
0100
1000
0001
,  // measure 20
0200
0000
0000
0000
,  // measure 21
0000
0000
0300
0010
0001
1000
0001
0100
,  // measure 22
2000
3000
0200
0300
,  // measure 23
0200
0000
0300
0010
0001
1000
0001
0100
,  // measure 24
1000
0100
0001
0100
1000
0100
0001
0100
,  // measure 25
1000
0100
0000
0100
0001
0100
0001
1000
,  // measure 26
0001
1000
0110
0010
,  // measure 27
0101
0000
0001
0000
0100
0010
0100
0001
,  // measure 28
1000
0100
0010
0001
,  // measure 29
0100
0000
0010
0000
0001
1000
0001
0100
,  // measure 30
1000
0100
0110
0010
,  // measure 31
1001
0000
0010
0000
0001
1000
0001
0100
,  // measure 32
1000
0001
1000
0001
,  // measure 33
0100
0000
0010
0000
0001
1000
0001
0100
,  // measure 34
1001
0100
0010
0001
1000
0001
0100
0010
,  // measure 35
0101
0000
0110
0000
0011
1000
0001
0100
,  // measure 36
1000
0010
0001
0100
0001
0100
0001
0100
,  // measure 37
1100
0000
0110
0000
0101
0010
0001
0100
,  // measure 38
2000
0000
0000
0000
,  // measure 39
0000
0000
3000
0001
0100
0001
0100
1000
,  // measure 40
2000
3000
0200
0300
,  // measure 41
0020
0000
0030
0000
0000
0100
0001
1000
,  // measure 42
0101
0000
0010
0000
0001
0000
1000
0000
0001
0000
0100
0000
0010
0000
0001
0100
,  // measure 43
1000
0000
0110
0000
0001
0100
0001
0100
,  // measure 44
1000
0010
0001
0100
0001
0100
0001
1000
,  // measure 45
0110
0000
0110
0000
0110
0001
1000
0100
,  // measure 46
0001
0000
0000
0100
0000
0000
0001
0000
0000
1000
0000
0000
0001
0000
0100
0000
,  // measure 47
0110
0000
0101
0000
0110
0001
1000
0100
,  // measure 48
0001
0000
0000
1000
0000
0000
0100
0000
0001
0000
0000
0010
0000
0000
0100
0001
,  // measure 49
0010
0000
0000
0000
0000
0000
0000
0000
0000
0000
0000
0000
0100
0000
0000
0000
0001
0000
0000
0000
1000
0000
0000
0000
0100
0000
0000
0000
0000
0000
0000
0000
0000
0010
0000
0000
0000
0000
0000
0000
0000
0000
0100
0000
0000
0000
0000
0000
,  // measure 50
0110
0000
0000
0000
0010
0100
0001
1000
0001
0010
0100
0000
0001
0000
0000
0000
,  // measure 51
1100
0000
0000
0000
0010
0001
0100
0001
1000
0001
0100
0000
0010
0000
0000
0000
,  // measure 52
0110
0000
0000
0000
0100
0001
0010
0100
1000
0000
0100
0000
0001
0000
0010
0000
,  // measure 53
0110
0101
0010
0101
1010
0001
0100
0010
,  // measure 54
0110
0000
0010
0000
1000
0100
0001
0100
0001
0000
0010
0000
0100
0000
0001
0000
,  // measure 55
0110
0000
0010
0000
1000
0100
0001
0100
0001
0000
1000
0000
0100
0000
1000
0000
,  // measure 56
0100
1000
0100
1000
0100
1000
0100
1000
,  // measure 57
0100
1000
0100
0010
0100
0001
0100
1000
,  // measure 58
0200
0300
0020
0030
,  // measure 59
0200
0000
0300
0010
0001
1000
0001
0100
,  // measure 60
1000
0100
0010
0000
0001
0100
0010
0000
0001
0100
1000
0000
0001
0100
0010
0000
,  // measure 61
0001
0100
1000
0000
0001
0100
0010
0000
0001
0100
0010
0000
1000
0001
0100
0000
,  // measure 62
0100
0001
0010
0000
0001
0100
0010
0000
0001
1000
0100
0000
0001
0100
0010
0000
,  // measure 63
0001
0100
0010
0000
1000
0001
0100
0010
0001
0100
0010
0100
1000
0001
0100
0000
,  // measure 64
0001
0100
0010
0000
0001
0100
0010
0000
0001
0100
0010
0000
0001
1000
0100
0000
,  // measure 65
0010
0100
0001
0000
1000
0100
0001
0000
0010
0100
0001
0000
0010
1000
0100
0001
,  // measure 66
0100
0010
0001
1000
0100
0001
0100
0001
1000
0001
0010
0100
0001
1000
0001
0010
,  // measure 67
0100
0001
0100
0010
0001
1000
0001
0100
1000
0000
0001
0000
0100
0000
1000
0000
,  // measure 68
0110
0100
0010
0001
1000
0001
0100
0010
,  // measure 69
0110
0000
0101
0000
1001
0100
0010
0100
,  // measure 70
0001
0100
0010
0001
1000
0001
0100
0010
,  // measure 71
0101
0000
0110
0000
1001
0100
0010
0100
,  // measure 72
0002
0000
0000
0000
,  // measure 73
0000
0000
0003
0010
0100
0001
0001
0010
,  // measure 74
1000
0000
1000
0000
0100
0001
0000
0000
0010
0100
0000
0001
0000
0000
0010
0000
,  // measure 75
0100
0000
0010
0000
0001
0100
0000
0000
0010
0001
0100
0001
0100
0001
1000
0100
,  // measure 76
0010
0000
0011
0000
0101
0000
0010
0100
,  // measure 77
0011
0000
0101
0000
1001
0000
0100
0010
,  // measure 78
0101
0000
0110
0000
1001
0000
0100
0010
,  // measure 79
1001
0000
0110
0000
1001
0000
0100
0010
,  // measure 80
1000
0001
0110
0000
0110
0000
0100
0010
,  // measure 81
0101
0000
0110
0000
0101
0000
0100
0010
,  // measure 82
0101
0000
0110
0000
0011
0000
1000
0100
,  // measure 83
0110
0000
0110
0000
0101
0001
0101
0011
;
