#VERSION:0.83;
#TITLE:take me thru there;
#SUBTITLE:;
#ARTIST:Metro Boomin, Quavo, YKNIECE, Breskii, & DJ Spinz;
#TITLETRANSLIT:;
#SUBTITLETRANSLIT:;
#ARTISTTRANSLIT:;
#GENRE:;
#ORIGIN:;
#CREDIT:;
#BANNER:;
#BACKGROUND:;
#PREVIEWVID:;
#JACKET:;
#CDIMAGE:;
#DISCIMAGE:;
#LYRICSPATH:;
#CDTITLE:;
#MUSIC:Metro Boomin - Take Me Thru Dere ft. Quavo, Breskii, YK Niece, & DJ Spinz (Official Music Video).ogg;
#OFFSET:0.000000;
#SAMPLESTART:100.059883;
#SAMPLELENGTH:12.000000;
#SELECTABLE:YES;
#BPMS:0.000=72.000;
#STOPS:0.000=0.075;
#DELAYS:;
#WARPS:;
#TIMESIGNATURES:0.000=4=4;
#TICKCOUNTS:0.000=4;
#COMBOS:0.000=1;
#SPEEDS:0.000=1.000=0.000=0;
#SCROLLS:0.000=1.000;
#FAKES:;
#LABELS:0.000=Song Start;
#BGCHANGES:0.000=Metro Boomin - Take Me Thru Dere ft. Quavo, Breskii, YK Niece, & DJ Spinz (Official Music Video).mp4=1.000=0=0=1=====,
99999=-nosongbg-=1.000=0=0=0 // don't automatically add -songbackground-
;
#KEYSOUNDS:;
#ATTACKS:
;

//---------------dance-single - ----------------
#NOTEDATA:;
#CHARTNAME:;
#STEPSTYPE:dance-single;
#DESCRIPTION:;
#CHARTSTYLE:;
#DIFFICULTY:Hard;
#METER:13;
#RADARVALUES:0.595556,0.685350,0.079817,0.000000,1.086736,679.000000,666.000000,13.000000,0.000000,0.000000,0.000000,0.000000,0.000000,0.000000,0.595556,0.685350,0.079817,0.000000,1.086736,679.000000,666.000000,13.000000,0.000000,0.000000,0.000000,0.000000,0.000000,0.000000;
#CREDIT:;
#NOTES:
// measure 0
0000
0000
0000
0000
,  // measure 1
0000
0000
0000
0000
,  // measure 2
0000
0000
0000
0000
0100
0000
0001
0000
0010
0100
0000
0000
0010
0000
0001
0000
1000
0100
0000
0000
0000
0000
0000
0000
0000
0000
0000
0000
0000
0000
0000
0000
,  // measure 3
0000
0000
0000
0000
0001
0000
0100
0000
0010
0000
0100
0000
0001
0000
0000
0000
0010
0000
0100
0000
0001
1000
0100
0000
0010
0100
0001
0000
0100
0000
0001
0000
,  // measure 4
0110
0000
0000
0000
1000
0000
0100
0000
0001
0010
0000
0000
0100
0000
0010
0000
0100
0001
0000
0000
0000
0000
0000
0000
0001
0000
0000
0100
1000
0000
0000
0000
,  // measure 5
0000
0000
0000
0000
0010
0000
0001
0000
1000
0100
0000
0000
0001
0000
0010
0000
0001
0100
0000
0000
0000
0000
0000
0000
0110
0000
0000
0000
1000
0100
0000
0000
,  // measure 6
0001
0010
0000
0000
1000
0000
0100
0000
0001
0010
0000
0000
0100
0000
0001
0000
0010
0100
0000
0000
0000
0000
0000
0000
0000
0000
1000
0000
0100
0000
0001
0000
,  // measure 7
0110
0000
0000
0000
0001
0000
0010
0000
1000
0001
0000
0000
0010
0000
0100
0000
0001
1000
0000
0000
0100
0000
0000
0000
0001
0000
0000
0000
1000
0000
0000
0000
,  // measure 8
0110
0000
0000
0000
1000
0000
0100
0000
0001
0010
0000
0000
0100
0000
0001
0000
0010
0100
0000
0000
0000
0000
0000
0000
1000
0000
0100
0000
0001
0000
0100
0000
,  // measure 9
0001
0000
0000
0000
0010
0000
0100
0000
0001
1000
0000
0000
0100
0000
0001
0000
0010
0100
0000
0000
0000
0000
0000
0000
0100
0000
0001
0000
1000
0000
0001
0100
,  // measure 10
0010
0000
0000
0000
1000
0000
0100
0000
0001
0010
0000
0000
1000
0000
0100
0000
0001
0010
0000
0000
0000
0000
0000
0000
1000
0100
0001
0000
0010
0000
0000
0001
,  // measure 11
0100
0000
0000
0000
0010
0000
0100
0000
0001
1000
0000
0000
0100
0000
0001
0000
0010
0100
0000
0000
1000
0000
0000
0000
0100
0000
0000
0000
0001
0000
0000
0000
,  // measure 12
0010
0100
0001
0000
1000
0000
0000
0001
0100
0000
0000
0000
0100
0010
0001
0000
0100
1000
0001
0000
0010
0000
0100
0001
0010
0000
0000
0000
0001
1000
0000
0100
,  // measure 13
0001
1000
0100
0000
0010
0000
0001
0000
0010
0000
0000
0000
0001
1000
0000
0000
0100
0001
0010
0000
1000
0000
0100
0000
0001
0000
0000
0000
1000
0100
0000
0000
,  // measure 14
0010
0000
0000
0001
0100
0000
0010
0000
0100
0000
0000
0000
0000
0000
0001
0000
0010
0100
0001
0000
1000
0100
0001
0000
0010
0000
0000
0000
0110
0000
0000
0000
,  // measure 15
0100
0001
1000
0100
0001
0000
0010
0000
0100
0000
0000
0010
0100
0000
0001
0000
1000
0000
0100
0000
0001
0000
0100
0000
0001
0000
1000
0000
0100
0000
0000
0000
,  // measure 16
0010
0000
0100
0000
0001
0000
0000
1000
0100
0001
0000
0100
0010
0001
1000
0100
0001
0100
0001
0000
1000
0000
0100
0000
0001
0000
0000
0000
1000
0100
0001
0000
,  // measure 17
0100
0010
0001
0010
0100
0000
0100
0000
0010
0100
0001
0000
1000
0000
0000
0000
0010
0100
0001
1000
0001
0100
0010
0000
0001
0000
0000
0000
1001
0000
0000
0000
,  // measure 18
0100
0000
0001
0000
1000
0000
0001
0000
0010
0000
1000
0000
0100
0000
0000
0001
0010
1000
0100
0001
0100
0001
0010
0100
0001
0000
1000
0000
0100
0000
0001
0000
,  // measure 19
0010
0001
0100
0010
0100
0000
0001
0000
0100
0000
0010
0000
0100
0000
0000
0000
0001
0000
0000
0000
0000
0100
0010
0100
0010
0000
0000
0000
0001
0000
0000
0000
,  // measure 20
1001
0000
0000
0000
0001
0000
0100
0000
1000
0100
0000
0000
0010
0000
0100
0000
0001
1000
0000
0000
0000
0000
0000
0000
0010
0000
0100
0001
0000
0000
0000
0000
,  // measure 21
0000
0000
0000
0000
0100
0000
0001
0000
0010
0100
0000
0000
0001
0000
1000
0000
0100
0001
0000
0000
0000
0000
0000
0000
1001
0000
0000
0000
0010
0100
0000
0000
,  // measure 22
0001
1000
0000
0000
0100
0000
0001
0000
0010
0100
0000
0000
0001
0000
0010
0000
0100
0001
0000
0000
0000
0000
0000
0000
0000
0000
1000
0000
0100
0000
0001
0000
,  // measure 23
0010
0000
0000
0000
0100
0000
0001
0000
0010
0100
0000
0000
0010
0000
0100
0000
0001
0010
0000
0000
0000
0000
0000
0000
1000
0000
0000
0001
0100
0000
0010
0000
,  // measure 24
0100
0000
0000
0000
0001
0000
1000
0000
0100
0001
0000
0000
0010
0000
0100
0000
0001
1000
0000
0000
0000
0000
0000
0000
0100
0000
0001
0000
1000
0000
0001
0000
,  // measure 25
0010
0000
0000
0000
0100
0000
0001
0000
0010
0100
0000
0000
0001
0000
0010
0000
0100
0001
0000
0000
0000
0000
0000
0000
0100
0000
0001
0000
1000
0000
0001
0010
,  // measure 26
0100
0000
0000
0000
0001
0000
1000
0000
0001
0100
0000
0000
0010
0000
0100
0000
0001
0010
0000
0000
0110
0000
0000
0000
1000
0100
0001
0000
0010
0000
0000
0001
,  // measure 27
0100
0000
0000
0000
0010
0000
0100
0000
0001
1000
0000
0000
0100
0000
0001
0000
0010
0100
0000
0000
0000
0000
0000
0000
0000
0000
0000
0000
0000
0000
0000
0000
,  // measure 28
0000
0000
0000
0000
0100
0000
0001
0000
0010
0100
0000
0000
1001
0000
0000
0000
0010
0001
0100
0010
0001
1000
0001
0100
1000
0000
0000
0000
0100
0001
0100
0001
,  // measure 29
0010
0000
0000
0000
1000
0000
0100
0000
0001
0000
0000
0010
0000
0000
0000
0000
1000
0100
0001
0000
1000
0100
0010
0000
0010
0000
0000
0000
0000
0000
0000
0000
,  // measure 30
0000
0000
0000
0000
1000
0100
0001
0100
0001
0010
0100
0001
0000
0000
0000
0000
0010
0001
0100
0010
0001
1000
0001
0100
1000
0000
0000
0000
0000
0000
0000
0000
,  // measure 31
0000
0000
0000
0000
0001
0100
0010
0000
1000
0000
0100
0001
0010
0000
0010
0000
0001
0000
1000
0000
0001
0000
0100
0000
1000
0010
0001
0000
0100
0000
0000
0000
,  // measure 32
0010
0000
0100
0001
1000
0000
0100
0001
0010
0100
0000
0000
0001
1000
0100
0001
0100
0001
0010
0100
0001
0000
0010
0100
0001
0010
0000
0000
0000
0000
0000
0000
,  // measure 33
1000
0000
0100
0001
0010
0000
0100
0001
1000
0001
0000
0000
0100
0001
0000
0100
0010
1000
0010
0100
0001
0000
0001
0100
1000
0100
0000
0000
0100
0000
0001
0000
,  // measure 34
0010
0000
1000
0100
0001
0000
0010
0100
0001
1000
0000
0000
0100
0010
0001
0100
0010
0001
1000
0001
0100
0000
0001
0010
1000
0100
0000
0000
0001
0000
0000
0000
,  // measure 35
0010
0000
0000
0000
,  // measure 36
0000
0000
0000
0000
0100
0000
0001
0000
1000
0010
0000
0000
0100
0000
0010
0000
0001
0100
0000
0000
0000
0000
0000
0000
1000
0000
0000
0001
0100
0000
0000
0000
,  // measure 37
0000
0000
0000
0000
0010
0000
0100
0000
0001
1000
0000
0000
0100
0000
0001
0000
0010
0000
0100
0000
0000
0000
0000
0000
1000
0000
0000
0000
0001
0100
0000
0000
,  // measure 38
0010
0100
0000
0000
0001
0000
1000
0000
0100
0001
0000
0000
0100
0000
0010
0000
0010
0100
0000
0000
0000
0000
0000
0000
0000
0000
0001
0000
0100
0000
1000
0000
,  // measure 39
0100
0000
0000
0000
0010
0000
0100
0000
0001
1000
0000
0000
0100
0000
0001
0000
0010
0100
0000
0000
0000
0000
0000
0000
0000
0000
0000
1000
0001
0000
0000
0000
,  // measure 40
1001
0000
0000
0000
0100
0000
0001
0000
0010
0100
0000
0000
0001
0000
1000
0000
0100
0001
0000
0000
0000
0000
0000
0000
0001
0000
1000
0000
0001
0000
0100
0000
,  // measure 41
1000
0000
0000
0000
0100
0000
0001
0000
0010
0100
0000
0000
0001
0000
1000
0000
0100
0001
0000
0000
0010
0000
0000
0000
0100
0000
0001
0000
1000
0000
0100
0000
,  // measure 42
0001
0000
0000
0000
1000
0000
0100
0000
0001
0010
0000
0000
0100
0000
0001
0000
1000
0100
0000
0000
0010
0000
0000
0000
0100
0001
0010
0000
0100
0000
0000
1000
,  // measure 43
0001
0000
0000
0000
0010
0000
0100
0000
0001
1000
0000
0000
0100
0000
0001
0000
0010
0100
0000
0000
0000
0000
0000
0000
0000
0000
0100
1000
0010
0000
0000
0000
,  // measure 44
1000
0000
0100
0001
0010
0000
0100
0001
1000
0100
0000
0000
0010
0001
0100
0010
0001
0100
0001
1000
0100
0000
0010
0100
0001
1000
0000
0000
0100
0000
0000
0000
,  // measure 45
0010
0000
0100
0001
1000
0000
0100
0001
0100
0001
0000
0000
0100
0001
1000
0100
0010
0100
0001
0100
1000
0000
0100
0001
1000
0001
0010
0000
0100
0000
0000
0000
,  // measure 46
0001
0000
1000
0100
0001
0000
0010
0100
0001
1000
0000
0000
0100
0001
0100
0001
1000
0001
0010
0100
0010
0000
0001
1000
0100
0001
0100
0000
0010
0000
0000
0000
,  // measure 47
0100
0110
0010
0110
0010
0000
0000
0000
;
