#VERSION:0.83;
#TITLE:sweet disposition ;
#SUBTITLE:(a moment a love);
#ARTIST:Lost Frequnecies, & The Temper Trap;
#TITLETRANSLIT:;
#SUBTITLETRANSLIT:;
#ARTISTTRANSLIT:;
#GENRE:;
#ORIGIN:;
#CREDIT:;
#BANNER:;
#BACKGROUND:;
#PREVIEWVID:;
#JACKET:;
#CDIMAGE:;
#DISCIMAGE:;
#LYRICSPATH:;
#CDTITLE:;
#MUSIC:Lost Frequencies & The Temper Trap - Sweet Disposition (a moment, a love).ogg;
#OFFSET:0.000000;
#SAMPLESTART:100.059883;
#SAMPLELENGTH:12.000000;
#SELECTABLE:YES;
#BPMS:0.000=129.000;
#STOPS:0.000=0.300;
#DELAYS:;
#WARPS:;
#TIMESIGNATURES:0.000=4=4;
#TICKCOUNTS:0.000=4;
#COMBOS:0.000=1;
#SPEEDS:0.000=1.000=0.000=0;
#SCROLLS:0.000=1.000;
#FAKES:;
#LABELS:0.000=Song Start;
#BGCHANGES:0.000=Lost Frequencies & The Temper Trap - Sweet Disposition (a moment, a love).mp4=0.000=0=0=1=====,
99999=-nosongbg-=1.000=0=0=0 // don't automatically add -songbackground-
;
#KEYSOUNDS:;
#ATTACKS:
;

//---------------dance-single - ----------------
#NOTEDATA:;
#CHARTNAME:;
#STEPSTYPE:dance-single;
#DESCRIPTION:;
#CHARTSTYLE:;
#DIFFICULTY:Hard;
#METER:9;
#RADARVALUES:0.346550,0.448428,0.014131,0.113049,0.018842,515.000000,512.000000,3.000000,24.000000,0.000000,0.000000,0.000000,0.000000,0.000000,0.346550,0.448428,0.014131,0.113049,0.018842,515.000000,512.000000,3.000000,24.000000,0.000000,0.000000,0.000000,0.000000,0.000000;
#CREDIT:;
#NOTES:
// measure 0
0000
0000
0000
0000
,  // measure 1
0000
0000
0000
0000
,  // measure 2
0000
0000
0000
0000
,  // measure 3
0000
0000
0000
0000
0000
0000
0000
0100
,  // measure 4
0001
0000
0000
1000
0000
0000
0100
0000
0000
0000
0000
0000
0000
0000
0100
0000
,  // measure 5
0010
0000
0000
0100
0001
0000
0000
0100
,  // measure 6
0010
0000
0000
0001
0100
0000
0000
0010
,  // measure 7
0001
0000
0000
1000
0100
0000
0000
0001
,  // measure 8
0100
0000
0000
0010
0000
0000
0001
0000
1000
0000
0000
0000
0000
0000
0100
0000
,  // measure 9
1000
0000
0000
0001
0100
0000
0000
0010
,  // measure 10
0100
0000
0000
0001
0000
0000
0100
0000
0000
0020
0000
0000
0000
0000
0000
0000
,  // measure 11
0000
0000
0000
0000
0000
0000
0000
0200
,  // measure 12
0000
0000
0000
0000
,  // measure 13
0000
0000
0000
0330
,  // measure 14
2000
0000
0000
0000
,  // measure 15
0200
0000
0000
0000
0000
0300
3000
0200
,  // measure 16
0000
0002
0000
0000
0000
0000
0000
0000
,  // measure 17
0000
0000
0000
0000
,  // measure 18
0000
0000
0000
0000
,  // measure 19
0000
0000
0000
0000
0000
0000
0303
0200
,  // measure 20
0000
0000
0000
0000
,  // measure 21
0000
0000
0000
0000
0000
0000
0000
0020
,  // measure 22
0000
0000
0000
0000
,  // measure 23
0000
0000
0000
0330
0200
0000
0000
0000
,  // measure 24
0002
0000
0000
0000
,  // measure 25
0000
0000
0000
0000
,  // measure 26
0000
0000
0000
0000
,  // measure 27
0000
0000
0000
0000
0000
0000
0303
0100
,  // measure 28
0001
0000
0000
1000
0000
0000
0100
0000
0001
0000
0000
0000
0000
0000
0001
0000
,  // measure 29
0100
0000
0000
0010
0001
0000
0000
0100
,  // measure 30
1000
0000
0000
0001
0100
0000
0000
0010
,  // measure 31
0001
0000
0000
0100
1000
0000
0000
1000
,  // measure 32
0100
0000
0000
0001
0000
0000
0010
0000
0000
0000
0000
0000
0000
0000
0010
0000
,  // measure 33
0001
0000
0000
0100
1000
0000
0000
0001
,  // measure 34
0100
0001
0100
0010
0001
1000
0001
0100
,  // measure 35
2002
0000
0000
3003
,  // measure 36
0010
0100
0001
1000
0001
0010
0100
0001
,  // measure 37
0010
0100
0001
1000
0001
0010
0100
0001
,  // measure 38
0100
0001
0010
0100
0001
1000
0001
0010
,  // measure 39
0100
0001
0100
0001
1000
0001
0010
0100
,  // measure 40
0001
1000
0001
0100
0010
0100
0010
0100
,  // measure 41
0001
0100
1000
0010
0100
0010
0100
0010
,  // measure 42
0100
0010
0100
0010
0001
0100
0001
0100
,  // measure 43
0010
0100
1000
0100
0010
0100
0010
0100
,  // measure 44
0010
0100
0010
0100
1000
0100
0010
0100
,  // measure 45
0001
0100
0001
0100
0010
0100
0010
0100
,  // measure 46
0010
0100
1000
0100
0010
0100
0010
0100
,  // measure 47
0010
0100
0010
0100
1000
0010
0100
0010
,  // measure 48
0100
0001
0001
0100
0100
0010
0001
0100
,  // measure 49
0001
0100
0010
0001
1000
0001
0100
0010
,  // measure 50
0001
0100
0001
0100
0010
0001
0100
0001
,  // measure 51
0100
0010
0001
0100
0001
0100
1000
0010
,  // measure 52
0100
0000
0001
1000
0001
0010
0100
0010
,  // measure 53
0001
0100
0001
0100
0010
0001
0100
0001
,  // measure 54
0100
0010
0001
1000
0001
0100
0010
0001
,  // measure 55
0100
0001
0100
0010
0001
0100
0001
0100
,  // measure 56
1000
0001
1000
0001
0100
0010
0001
0100
,  // measure 57
0001
0100
0010
0001
0100
0001
0100
0010
,  // measure 58
0001
1000
0001
0100
0010
0001
0100
0001
,  // measure 59
0100
0010
0001
1000
0001
0100
0010
0200
,  // measure 60
0000
0000
0000
0000
,  // measure 61
0000
0000
0000
0000
0000
0300
0000
0200
,  // measure 62
0000
0000
0000
0000
0000
0000
0000
0020
,  // measure 63
0000
0000
0000
0000
0000
0330
0100
0002
,  // measure 64
0000
2000
0000
0000
0000
0000
0000
0000
,  // measure 65
0000
0000
0000
0000
,  // measure 66
0000
0000
0000
0000
,  // measure 67
0000
0000
0000
0000
0000
0000
3003
0020
,  // measure 68
0000
0000
0000
0000
,  // measure 69
0000
0000
0000
0000
0000
0000
0030
2000
,  // measure 70
0000
0000
0000
0000
0000
0000
0000
0002
,  // measure 71
0000
0000
0000
3003
0200
0000
0000
0000
,  // measure 72
0020
0000
0000
0000
,  // measure 73
0000
0000
0000
0000
,  // measure 74
0000
0000
0000
0000
,  // measure 75
0000
0000
0000
0000
0000
0000
0330
1000
,  // measure 76
0100
0000
0000
0001
0000
0000
0010
0000
0100
0000
0000
0000
0000
0000
0001
0000
,  // measure 77
0100
0000
0000
0010
0001
0000
0000
0100
,  // measure 78
1000
0000
0000
0010
0001
0000
0000
0100
,  // measure 79
1000
0000
0000
0100
0010
0000
0000
0100
,  // measure 80
0001
0000
0000
0010
0000
0000
0100
0000
0001
0000
0000
0000
0000
0000
0100
0000
,  // measure 81
1000
0000
0000
0001
0100
0000
0000
0010
,  // measure 82
0001
0100
0010
0001
0100
0001
0100
0010
,  // measure 83
2002
0000
0000
0000
0000
0000
0000
3003
,  // measure 84
0010
0100
0010
0001
0100
0001
0100
0010
,  // measure 85
0001
1000
0001
0100
0010
0001
0100
0001
,  // measure 86
0100
0010
0001
0100
0001
0100
0010
0001
,  // measure 87
1000
0001
0100
0010
0001
0100
0001
0100
,  // measure 88
1000
0010
0100
0010
0001
0100
0001
0100
,  // measure 89
0010
0001
0100
0001
0100
0010
0100
1000
,  // measure 90
0010
0100
0010
0100
0010
0100
0010
0100
,  // measure 91
0010
0100
0010
0100
0010
0100
0010
0100
,  // measure 92
0100
1000
0100
0010
0100
0010
0100
1000
,  // measure 93
0100
0010
0001
0100
0001
0010
0100
0001
,  // measure 94
0100
0010
0001
0100
0001
0100
0010
0001
,  // measure 95
1000
0001
0100
0010
0010
0001
0100
0001
,  // measure 96
0100
0010
0001
1000
0001
0100
0010
0001
,  // measure 97
0100
0001
0100
0010
0001
1000
0001
0100
,  // measure 98
0010
0001
0100
0001
0100
0010
0001
0100
,  // measure 99
0001
0100
0010
0001
1000
0001
0100
0010
,  // measure 100
1000
0000
0001
0010
0100
0010
0001
0100
,  // measure 101
0001
0100
0010
0001
1000
0001
0100
0010
,  // measure 102
0001
0100
0001
0100
0010
0001
0100
0001
,  // measure 103
0100
0010
0001
0100
0001
0100
0010
0001
,  // measure 104
1000
0001
0100
0010
0001
0100
0001
0100
,  // measure 105
1000
0010
0001
0100
0001
0010
0100
0001
,  // measure 106
0100
0010
0001
1000
0001
0100
0010
0001
,  // measure 107
0100
0001
0100
0010
0001
0100
0001
0000
,  // measure 108
0100
1000
0000
0100
,  // measure 109
0000
0001
0000
0100
,  // measure 110
0000
0010
0000
0001
,  // measure 111
0000
0000
0100
0000
0000
0001
0100
0000
,  // measure 112
1001
0000
0000
0000
;
