#VERSION:0.83;
#TITLE:swag surfin;
#SUBTITLE:;
#ARTIST:Wheathen;
#TITLETRANSLIT:;
#SUBTITLETRANSLIT:;
#ARTISTTRANSLIT:;
#GENRE:;
#ORIGIN:;
#CREDIT:;
#BANNER:;
#BACKGROUND:;
#PREVIEWVID:;
#JACKET:;
#CDIMAGE:;
#DISCIMAGE:;
#LYRICSPATH:;
#CDTITLE:;
#MUSIC:Swag Surfin'.ogg;
#OFFSET:0.000000;
#SAMPLESTART:100.059883;
#SAMPLELENGTH:12.000000;
#SELECTABLE:YES;
#BPMS:0.000=144.000;
#STOPS:0.000=0.900;
#DELAYS:;
#WARPS:;
#TIMESIGNATURES:0.000=4=4;
#TICKCOUNTS:0.000=4;
#COMBOS:0.000=1;
#SPEEDS:0.000=1.000=0.000=0;
#SCROLLS:0.000=1.000;
#FAKES:;
#LABELS:0.000=Song Start;
#BGCHANGES:;
#KEYSOUNDS:;
#ATTACKS:
;

//---------------dance-single - ----------------
#NOTEDATA:;
#CHARTNAME:;
#STEPSTYPE:dance-single;
#DESCRIPTION:;
#CHARTSTYLE:;
#DIFFICULTY:Hard;
#METER:12;
#RADARVALUES:0.696104,0.712522,0.980675,0.035024,0.043780,1113.000000,889.000000,224.000000,8.000000,0.000000,0.000000,0.000000,0.000000,0.000000,0.696104,0.712522,0.980675,0.035024,0.043780,1113.000000,889.000000,224.000000,8.000000,0.000000,0.000000,0.000000,0.000000,0.000000;
#CREDIT:;
#NOTES:
// measure 0
0000
0000
0000
0000
,  // measure 1
0000
0000
0000
0000
,  // measure 2
0020
0000
0000
0000
,  // measure 3
0000
0000
0030
0001
1000
0001
0100
0010
,  // measure 4
2000
0000
0000
0000
,  // measure 5
0000
0000
3000
0001
0100
0010
0100
0001
,  // measure 6
2000
0000
0000
0000
,  // measure 7
0000
0000
3000
0000
0010
0001
0100
0001
,  // measure 8
0200
0010
0000
0010
,  // measure 9
0000
0000
0310
0001
0100
0010
1000
0100
,  // measure 10
0002
1000
0000
1000
,  // measure 11
0000
0000
1003
0100
0001
1000
0001
0100
,  // measure 12
2000
0010
0000
0010
,  // measure 13
0000
0000
3010
0010
0001
0100
0001
1000
,  // measure 14
0200
0000
0300
0100
0002
0000
0003
0010
,  // measure 15
0001
1000
0001
0100
1000
0010
0001
0100
,  // measure 16
1001
0000
0101
0001
0101
0010
0101
0100
,  // measure 17
0010
0001
0100
0001
1100
0000
0001
0010
,  // measure 18
0101
0000
0001
0100
1000
0001
0100
0010
,  // measure 19
0001
0000
0001
0100
1000
0001
0100
0001
,  // measure 20
1100
0000
0101
0010
0100
0001
1001
0010
,  // measure 21
0101
0000
0101
0001
0100
0001
1001
0010
,  // measure 22
0110
0000
1001
0001
0010
0100
0110
0001
,  // measure 23
0100
0010
0001
0100
0001
0100
1000
0100
,  // measure 24
0101
0000
0010
0100
0110
0000
1001
0001
,  // measure 25
0010
0100
0001
0100
0101
1000
1100
0000
,  // measure 26
0110
0000
0001
0100
0101
0000
0110
0000
,  // measure 27
0100
0001
0100
0100
1100
0000
0101
0010
,  // measure 28
0110
0000
1001
0010
0100
0001
0110
0010
,  // measure 29
0110
0000
0101
0010
1000
0010
0101
0100
,  // measure 30
0101
0000
0011
0100
1000
0010
0101
0010
,  // measure 31
0100
0001
0100
0010
0001
0100
0001
0100
,  // measure 32
1010
0000
0010
0001
1000
0001
0010
0100
,  // measure 33
0101
0000
0000
0000
0101
0000
0101
0001
,  // measure 34
1100
0000
0010
0100
0010
0001
0100
0010
,  // measure 35
1001
0000
0000
0000
0101
0000
0001
0010
,  // measure 36
0110
0000
0100
0001
0101
0000
1001
0001
,  // measure 37
0110
0000
0100
0010
1001
0000
0010
0001
,  // measure 38
1100
0000
0001
0100
0010
0001
0110
0001
,  // measure 39
0110
0000
0000
0000
0100
0001
0101
0000
,  // measure 40
0100
1000
0001
0100
0010
0000
0001
0100
,  // measure 41
0010
0010
0011
0000
0110
0000
1001
0000
,  // measure 42
0110
0000
0001
1000
0001
0100
0010
0001
,  // measure 43
0100
0010
0100
0001
0010
0001
0100
0010
,  // measure 44
0110
0000
0010
0001
0110
0000
1001
0010
,  // measure 45
0100
0010
1001
0000
0010
0001
0100
0010
,  // measure 46
0001
0100
0010
0001
1000
0001
0100
0010
,  // measure 47
0001
0100
0010
0001
0100
0001
0100
0001
1000
0000
0000
0000
0000
0000
0000
0000
,  // measure 48
0110
0000
1000
0100
0101
0000
0100
0010
,  // measure 49
1001
0000
0010
0001
0101
0000
0010
0100
,  // measure 50
1001
0000
0001
0010
0101
0000
0100
0010
,  // measure 51
1000
0001
0110
0000
1001
0010
0101
1000
,  // measure 52
1100
0000
0110
0010
0110
0000
1001
0001
,  // measure 53
0101
0000
0110
0010
1001
0000
0101
0001
,  // measure 54
0101
0000
1001
0001
1001
0000
0110
0010
,  // measure 55
0100
0001
1100
0001
0100
0010
0101
0000
,  // measure 56
0010
0001
0100
0010
1001
0000
0010
0001
,  // measure 57
0100
0001
0100
0100
1000
0010
0100
0000
,  // measure 58
0110
0010
0001
0010
1001
0000
0101
0010
,  // measure 59
1001
0000
0101
0000
0110
0000
1001
0001
,  // measure 60
0101
0000
0010
0100
0001
0100
0010
0100
,  // measure 61
0010
0100
0001
0100
0001
0100
0001
0100
,  // measure 62
1001
0000
0100
0001
0100
0001
0100
0010
,  // measure 63
0001
0000
0100
0000
0001
0000
0100
0000
1000
0000
0001
0000
0100
0010
0100
0001
,  // measure 64
1000
0010
0001
0100
0001
0100
0010
0001
,  // measure 65
0100
0001
0100
0001
0110
0000
1010
0000
,  // measure 66
0110
0000
0101
0000
0100
0001
1000
0001
,  // measure 67
0010
0001
0100
0001
0101
0000
0101
0001
,  // measure 68
1001
0000
0101
0000
1001
0001
0100
0001
,  // measure 69
0110
0001
1100
0000
0101
1000
1001
0000
,  // measure 70
0010
0001
0100
0010
0001
1000
0001
0100
,  // measure 71
0010
0001
0100
0010
0001
1000
0001
0100
1000
0000
0010
0000
0100
0000
0001
0000
,  // measure 72
0110
0000
0010
0100
0101
1000
0100
0001
,  // measure 73
0100
0010
0100
0010
1001
0010
0100
0010
,  // measure 74
1001
0010
0100
0010
0001
0010
0001
0100
,  // measure 75
1000
0100
0010
0100
0001
0100
1000
0010
,  // measure 76
1001
0000
0011
0001
0100
0010
1001
0001
,  // measure 77
1001
0000
0101
0010
0100
0001
0101
0100
,  // measure 78
0101
0000
0101
0001
0100
0010
1001
0010
,  // measure 79
0100
0001
0100
0010
0001
0100
0001
0100
,  // measure 80
1001
0101
0110
0101
,  // measure 81
0001
1000
0010
0001
0101
1000
1001
0000
,  // measure 82
0101
0000
0010
0100
0011
0000
0101
0000
,  // measure 83
0100
0001
0100
0010
0101
0001
0100
0010
,  // measure 84
0101
0000
0101
0010
1000
0010
0101
1000
,  // measure 85
1100
0000
0101
0100
0010
0001
0101
0010
,  // measure 86
0101
0000
1001
0010
0100
0010
1001
0010
,  // measure 87
0100
0010
0001
0100
0010
0001
0100
0001
,  // measure 88
1100
0010
0101
0001
0100
0010
0101
0100
,  // measure 89
1100
0000
0110
0000
0010
0001
0100
0001
,  // measure 90
1100
0100
0010
0001
0100
0001
0100
0010
,  // measure 91
1001
0000
0101
0000
0100
0001
0100
0010
,  // measure 92
1001
0000
0101
0001
0100
0001
1001
0001
,  // measure 93
0110
0000
1001
0010
0100
0010
1000
0001
,  // measure 94
0110
0000
0010
0001
1000
0001
0110
0010
,  // measure 95
1001
0100
0001
0100
0001
0010
0001
0100
,  // measure 96
1001
0000
0100
0010
0101
0000
0100
0010
,  // measure 97
1001
0001
0110
0001
0101
0000
1001
0000
,  // measure 98
0010
0100
0001
0010
0001
0100
0001
0100
,  // measure 99
1010
0100
0101
0001
0100
0010
0110
0010
,  // measure 100
1001
0000
0000
0000
0010
0000
0001
0000
0100
0000
0000
0010
0001
0000
0100
0000
,  // measure 101
1000
0001
0110
0000
0010
0001
0100
0010
,  // measure 102
1001
0100
0010
0001
0100
0010
1000
0100
,  // measure 103
0001
0000
0000
0000
0010
0000
0000
0000
0100
0000
0000
0000
0001
0000
0000
0000
0000
0000
0010
0000
0000
0100
0000
0000
0001
0000
0000
0000
0000
0000
1000
0000
0000
0000
0000
0000
0100
0000
0000
0000
0000
0000
0001
0000
0000
0010
0000
0000
,  // measure 104
0100
0001
0100
0001
0110
0000
0101
0000
,  // measure 105
0110
0001
1001
0000
0101
0000
0101
0001
,  // measure 106
0110
0000
0010
0001
1100
0000
0110
0001
,  // measure 107
1001
0000
0010
0001
0100
0001
0100
0010
,  // measure 108
1001
0000
0101
0000
0010
0100
0001
1000
,  // measure 109
1001
0000
0101
0000
0001
0100
0001
1000
,  // measure 110
1001
0001
0100
0001
0101
0000
1001
0010
,  // measure 111
0101
0000
0000
0000
0001
0000
1000
0000
0001
0000
0100
0000
0010
0100
0001
0000
,  // measure 112
1000
0000
0100
0010
0001
0100
0001
0100
,  // measure 113
1000
0100
0000
0000
1000
0100
0001
0000
,  // measure 114
0010
0100
0011
0000
0100
0001
1001
0000
,  // measure 115
0001
0100
0000
0100
0010
0001
0100
0010
,  // measure 116
1001
0010
0100
0010
0001
0100
0001
0100
,  // measure 117
1001
0001
0100
0010
0001
0100
0001
0100
,  // measure 118
1000
0001
0100
0010
0001
1000
0001
0100
,  // measure 119
0010
0001
0100
0010
0001
1000
0001
0100
1000
0000
0001
0000
0100
0000
0010
0000
,  // measure 120
1001
0000
0101
0001
0101
1000
1100
0100
,  // measure 121
0001
0100
0001
0010
0101
0010
0110
0001
,  // measure 122
1001
0000
0010
0001
0101
0001
0100
1000
,  // measure 123
0110
0000
0001
0100
0101
1000
0100
0001
,  // measure 124
0110
0000
0011
1000
0100
0010
0110
0001
,  // measure 125
1001
0000
0110
0001
0100
0010
1001
0100
,  // measure 126
0101
0000
0110
0001
0100
0010
1001
0010
,  // measure 127
0100
0010
1001
1000
0001
0100
1000
0100
,  // measure 128
0110
0000
0100
0010
1001
0000
0101
0000
,  // measure 129
0001
0100
0100
0001
0101
0010
0110
0000
,  // measure 130
1001
0000
0001
0100
0101
0000
0110
0000
,  // measure 131
0010
0001
0100
0010
1001
0000
0010
0001
,  // measure 132
1001
0000
0011
0010
0001
0010
0110
0001
,  // measure 133
0101
0000
0011
0001
0100
0010
1001
0001
,  // measure 134
0101
0000
1001
0010
0100
0010
1001
0100
,  // measure 135
0010
0001
0100
0001
0100
1000
0000
0000
;
