#VERSION:0.83;
#TITLE:super duper boyfriend;
#SUBTITLE:;
#ARTIST:Nanobii;
#TITLETRANSLIT:;
#SUBTITLETRANSLIT:;
#ARTISTTRANSLIT:;
#GENRE:;
#ORIGIN:;
#CREDIT:;
#BANNER:;
#BACKGROUND:;
#PREVIEWVID:;
#JACKET:;
#CDIMAGE:;
#DISCIMAGE:;
#LYRICSPATH:;
#CDTITLE:;
#MUSIC:nanobii - super duper boyfriend (LYRICS).ogg;
#OFFSET:0.000000;
#SAMPLESTART:100.059883;
#SAMPLELENGTH:12.000000;
#SELECTABLE:YES;
#BPMS:0.000=190.000;
#STOPS:0.000=0.400;
#DELAYS:;
#WARPS:;
#TIMESIGNATURES:0.000=4=4;
#TICKCOUNTS:0.000=4;
#COMBOS:0.000=1;
#SPEEDS:0.000=1.000=0.000=0;
#SCROLLS:0.000=1.000;
#FAKES:;
#LABELS:0.000=Song Start;
#BGCHANGES:;
#KEYSOUNDS:;
#ATTACKS:
;

//---------------dance-single - ----------------
#NOTEDATA:;
#CHARTNAME:;
#STEPSTYPE:dance-single;
#DESCRIPTION:;
#CHARTSTYLE:;
#DIFFICULTY:Hard;
#METER:16;
#RADARVALUES:0.837827,1.294664,0.190911,0.221457,0.511642,768.000000,743.000000,25.000000,29.000000,0.000000,0.000000,0.000000,0.000000,0.000000,0.837827,1.294664,0.190911,0.221457,0.511642,768.000000,743.000000,25.000000,29.000000,0.000000,0.000000,0.000000,0.000000,0.000000;
#CREDIT:;
#NOTES:
// measure 0
0000
0000
0000
0000
,  // measure 1
0000
0000
0000
0000
,  // measure 2
0000
0000
0000
0000
,  // measure 3
0000
0000
0000
0000
,  // measure 4
0000
0000
0000
0000
,  // measure 5
0000
0000
0000
0000
,  // measure 6
0000
0000
0000
0000
,  // measure 7
0000
0000
0000
0000
,  // measure 8
0011
0000
0001
0100
0011
0000
0011
0000
,  // measure 9
1000
0001
0100
0010
0110
0000
0101
0000
,  // measure 10
0110
0000
0110
0000
0101
0000
0100
0001
,  // measure 11
0100
1000
0100
0000
0001
0100
0001
0100
,  // measure 12
1010
0000
0000
0000
0100
0000
0001
0000
0010
0000
0100
0000
0100
0000
0001
0010
,  // measure 13
0100
0001
0100
0010
0100
0001
0100
0010
,  // measure 14
1000
0100
0010
0100
0010
0100
0001
0100
,  // measure 15
1000
0100
0010
0100
0001
0100
0010
0001
1000
0001
0100
0010
0001
0100
0001
0100
,  // measure 16
1000
0000
0001
0000
0100
0000
0010
0000
0101
0000
0000
0000
1100
0000
0010
0100
,  // measure 17
0001
0010
0001
0100
0001
0010
0001
0100
,  // measure 18
0010
0001
0100
0001
0100
0010
0010
0100
,  // measure 19
1000
0010
0100
0010
0100
0001
0100
0001
,  // measure 20
0100
0000
0010
0000
0001
0000
0100
0000
0001
0000
0100
0000
0010
0000
0001
0100
,  // measure 21
1000
0000
0100
0000
0010
0000
0100
0000
0001
0000
0100
0000
0010
0000
0001
1000
,  // measure 22
0100
0001
0100
0010
0001
0100
0001
0100
,  // measure 23
1000
0100
0010
0100
0010
0100
0001
0100
,  // measure 24
1000
0010
0100
0010
0100
0010
0100
0010
0001
0100
0001
0100
0010
0100
0001
0100
,  // measure 25
1000
0000
0010
0100
0010
0100
0001
0100
,  // measure 26
1000
0100
0010
0100
0010
0100
0001
0100
,  // measure 27
1000
0100
0100
0001
0100
0010
0100
0001
,  // measure 28
1000
0000
0001
0000
0100
0000
0010
0000
0100
0010
0001
0100
0010
0000
0001
0100
,  // measure 29
1000
0000
0010
0000
0100
0000
0001
0000
0100
0000
0010
0000
0010
0000
0001
0100
,  // measure 30
1000
0000
0001
0010
0100
0000
0001
0000
1000
0000
0001
0000
0010
0000
0100
0000
,  // measure 31
0001
0100
1000
0100
0010
0100
0010
0001
,  // measure 32
0100
0000
0001
0000
0100
0000
0010
0000
0001
0100
0010
0100
0010
0100
0001
0100
,  // measure 33
1000
0000
0010
0000
0100
0000
0010
0000
0100
0000
0000
0000
0100
0001
0010
0000
,  // measure 34
1000
0000
0100
0000
0001
0000
0100
0010
0001
0100
0001
0000
0100
0000
0010
0000
,  // measure 35
0100
0000
0001
0000
0100
0000
0010
0001
0100
1000
0100
0000
0100
0000
0010
0000
,  // measure 36
0100
0000
0001
0000
0010
0000
0001
0100
0010
0001
0100
0000
1000
0000
0100
0000
,  // measure 37
0010
0000
0001
0000
0100
0000
0010
0100
0001
1000
0100
0000
0010
0000
0100
0000
,  // measure 38
0010
0000
0001
0000
0100
0000
0010
0100
0001
1000
0100
0000
0010
0000
0001
0000
,  // measure 39
0100
0000
0001
0000
0010
0000
0100
0001
1000
0100
0001
0000
0010
0000
0100
0000
,  // measure 40
0001
0000
0010
0000
0100
0000
0010
0100
0010
0100
0001
0000
0100
0000
1000
0000
,  // measure 41
0001
0000
0100
0000
0010
0000
0100
0001
0010
0001
0100
0010
0001
0100
0001
0100
,  // measure 42
2000
0000
0100
3100
,  // measure 43
0002
0003
0200
0300
,  // measure 44
2000
3000
0002
0003
,  // measure 45
0200
0000
0300
0020
,  // measure 46
0200
0330
0200
0302
,  // measure 47
0023
0030
0200
0300
,  // measure 48
0002
0003
0200
0300
,  // measure 49
0020
0000
0000
0030
,  // measure 50
0100
0001
1000
0000
0100
0001
0010
0000
0100
0001
0010
0000
0100
0001
0010
0000
,  // measure 51
0100
0001
1000
0100
0001
0000
0010
0000
,  // measure 52
0010
0001
0100
0010
0011
0000
1010
0000
,  // measure 53
0110
0000
0001
0100
0001
0000
1000
0100
,  // measure 54
0001
0100
0010
0000
0000
0000
0000
0000
,  // measure 55
0000
0000
0000
0000
0001
0000
0100
0000
0010
0000
0000
0000
1000
0000
0100
0001
,  // measure 56
0010
0010
0100
0001
0100
0000
0100
0000
,  // measure 57
0010
0000
0001
1000
0100
0000
0100
0000
,  // measure 58
0010
0001
0100
0001
0100
0000
1000
0000
,  // measure 59
0101
0000
0101
0000
0010
0100
0001
0100
,  // measure 60
1001
0000
0000
0000
0110
0000
0000
0000
0100
0000
0001
0000
1000
0100
0001
0100
,  // measure 61
0011
0000
0101
0000
0101
0000
0000
0000
0010
0100
0001
0100
0001
1000
0100
0001
,  // measure 62
0010
0100
0001
0100
0001
0000
0010
0000
0100
0000
0010
0000
0100
0000
0001
0000
,  // measure 63
0010
0001
0100
0010
0001
1000
0001
0100
0010
0001
0100
0001
0100
0010
1000
0001
,  // measure 64
0100
0010
0100
0001
1000
0001
0010
0100
0001
0100
0001
0100
0001
0010
0100
0001
,  // measure 65
0100
0010
0100
0010
0100
0010
0100
0010
0001
1000
0001
0100
0010
0001
0100
0001
,  // measure 66
0100
0010
0001
1000
0001
0100
0010
0001
0100
0001
0100
0010
0100
0100
0001
0100
,  // measure 67
1000
0100
0010
0100
0001
0100
0001
1000
,  // measure 68
0100
0000
0010
0000
0001
0000
0100
0000
0010
0001
0100
0010
0001
0100
0001
0100
,  // measure 69
1000
0010
0100
0001
0100
0010
0100
0001
,  // measure 70
1000
0100
0010
0100
0010
0001
0100
0001
,  // measure 71
0100
1000
0010
0100
0010
0001
0100
0001
,  // measure 72
0100
0000
0010
0000
0001
0000
0100
0000
0001
0000
0100
0000
0010
0100
0001
0100
,  // measure 73
1000
0000
0100
0000
0010
0000
0100
0000
0001
0000
0100
0000
1000
0000
0010
0100
,  // measure 74
0001
0000
0100
0010
1000
0000
0001
0000
0100
0000
0010
0000
0100
0000
0001
0000
,  // measure 75
0010
0100
0100
0010
0100
0001
0100
0010
,  // measure 76
1000
0100
0001
0100
0001
1000
0001
0010
0100
0001
0100
0001
0100
0010
0100
0001
,  // measure 77
0110
0000
0100
0001
1000
0100
0001
0100
,  // measure 78
0001
0010
0100
0010
0100
0010
0001
0100
,  // measure 79
1000
0100
0010
0001
0100
0001
0100
0100
,  // measure 80
1000
0000
0010
0000
0001
0000
0100
0000
0010
0001
0100
0010
0001
0100
0001
0100
,  // measure 81
1000
0000
0001
0000
0100
0000
0010
0000
0100
0000
0001
0000
0100
0000
0001
0100
,  // measure 82
0010
0000
0010
0100
0001
0000
0010
0000
0100
0000
0001
0000
1000
0000
0001
0000
,  // measure 83
0010
0001
1000
0001
0100
0000
0010
0000
0001
0100
0001
0100
0010
0100
0001
0100
,  // measure 84
1000
0000
0010
0000
0001
0010
0100
0001
0010
0001
0100
0010
0001
0100
0001
1000
,  // measure 85
0100
0010
0100
0010
0100
0010
0100
0010
,  // measure 86
0100
0010
0100
0010
0001
0100
0001
0100
,  // measure 87
1000
0010
0100
0010
0001
0100
0010
0001
,  // measure 88
0100
0001
0100
0010
0001
0100
0001
0100
,  // measure 89
1000
0100
0001
0100
0101
0000
0000
0000
0010
0000
0100
0000
0001
0000
0100
0000
,  // measure 90
1000
0010
0001
1000
0001
0100
0001
0100
,  // measure 91
0011
0100
0010
0001
0100
0001
0100
0010
,  // measure 92
0011
0000
0100
0000
0001
0000
0100
0000
0010
0001
0100
0010
0001
1000
0001
0100
,  // measure 93
1000
0000
0100
0001
,  // measure 94
0200
0300
0020
0030
,  // measure 95
0020
0030
0002
0003
,  // measure 96
0020
0000
0030
0200
,  // measure 97
0020
0330
2000
3200
,  // measure 98
0302
0003
0002
0003
,  // measure 99
0200
0300
0020
0030
,  // measure 100
0200
0000
0000
0000
,  // measure 101
0000
0000
0000
0000
,  // measure 102
0000
0000
0000
0300
;
