#VERSION:0.83;
#TITLE:stay with me;
#SUBTITLE:;
#ARTIST:dottir.x;
#TITLETRANSLIT:;
#SUBTITLETRANSLIT:;
#ARTISTTRANSLIT:;
#GENRE:;
#ORIGIN:;
#CREDIT:;
#BANNER:;
#BACKGROUND:;
#PREVIEWVID:;
#JACKET:;
#CDIMAGE:;
#DISCIMAGE:;
#LYRICSPATH:;
#CDTITLE:;
#MUSIC:stay with me.ogg;
#OFFSET:0.000000;
#SAMPLESTART:100.059883;
#SAMPLELENGTH:12.000000;
#SELECTABLE:YES;
#BPMS:0.000=143.000;
#STOPS:;
#DELAYS:;
#WARPS:;
#TIMESIGNATURES:0.000=4=4;
#TICKCOUNTS:0.000=4;
#COMBOS:0.000=1;
#SPEEDS:0.000=1.000=0.000=0;
#SCROLLS:0.000=1.000;
#FAKES:;
#LABELS:0.000=Song Start;
#BGCHANGES:;
#KEYSOUNDS:;
#ATTACKS:
;

//---------------dance-single - ----------------
#NOTEDATA:;
#CHARTNAME:;
#STEPSTYPE:dance-single;
#DESCRIPTION:;
#CHARTSTYLE:;
#DIFFICULTY:Hard;
#METER:16;
#RADARVALUES:0.781254,0.830212,0.011149,0.011149,0.738647,981.000000,979.000000,2.000000,2.000000,0.000000,0.000000,0.000000,0.000000,0.000000,0.781254,0.830212,0.011149,0.011149,0.738647,981.000000,979.000000,2.000000,2.000000,0.000000,0.000000,0.000000,0.000000,0.000000;
#CREDIT:;
#NOTES:
// measure 0
0000
0000
0000
0000
,  // measure 1
0000
0000
0000
0000
,  // measure 2
1000
0000
0100
0001
0010
0100
0001
0000
0010
0000
0001
0100
0001
1000
0100
0000
,  // measure 3
0010
0000
0100
0001
0000
1000
0100
0000
0001
0000
0100
0010
0000
0100
0010
0000
,  // measure 4
0001
0000
0100
0010
0000
0001
0100
0000
0010
0000
0001
0100
0001
1000
0100
0000
,  // measure 5
0010
0000
0100
0001
0100
0010
0100
0000
0001
0000
1000
0100
0001
0010
0100
0000
,  // measure 6
0001
0000
0001
1000
0001
0100
0010
0000
0010
0000
0100
0001
1000
0001
0010
0000
,  // measure 7
0010
0000
0001
0100
0000
1000
0100
0000
0010
0000
0100
0001
0000
0010
0100
0000
,  // measure 8
0100
0001
1000
0001
0010
0100
0001
0000
0010
0000
0100
0001
1000
0001
0010
0000
,  // measure 9
0010
0000
0000
0100
0000
0000
0001
0000
0000
0000
0000
0000
0010
0000
0000
0100
,  // measure 10
0000
0010
0000
0000
0001
1000
0001
0100
,  // measure 11
0001
0000
0000
1000
0000
0000
0100
0000
0000
0000
0000
0000
0100
0000
0000
0010
,  // measure 12
0000
0100
0000
0010
0001
1000
0001
0100
,  // measure 13
0010
0000
0000
0001
0000
0000
0100
0000
0000
0000
0001
0000
0000
0000
0100
0000
,  // measure 14
0000
0000
0000
0000
0100
0001
0000
1000
0100
0000
0010
0000
0010
0000
0100
0000
,  // measure 15
0001
0000
0000
0001
0000
0000
1000
0000
0000
0000
0001
0010
0001
0010
0100
0000
,  // measure 16
0000
0000
0100
0001
0100
0001
0010
0000
0000
0000
0001
0000
0000
0000
0100
0000
,  // measure 17
0000
0100
0000
0001
0000
0100
0000
0010
,  // measure 18
0000
0010
0000
0100
0000
0001
0000
0010
,  // measure 19
0110
0000
0001
0000
0010
0000
0100
0001
0010
0000
0100
0000
0100
0000
0010
0000
,  // measure 20
0001
0000
0100
0000
0001
0000
0100
0010
1000
0001
0100
0000
0001
0000
0010
0000
,  // measure 21
0001
0000
0100
0000
0001
0000
1000
0010
0100
0000
0100
0000
0010
0000
0100
0000
,  // measure 22
0001
0000
0010
0000
0001
0100
0010
0000
1000
0001
0100
0000
0001
0000
0100
0010
,  // measure 23
0001
0000
0100
0000
0010
0000
0001
1000
0100
0000
0001
0000
0100
0000
1000
0000
,  // measure 24
0001
0000
0100
0000
0010
0001
0100
0000
0010
0100
0001
0000
1000
0100
0001
0000
,  // measure 25
0001
0000
0100
0000
0010
0000
0001
1000
0100
0000
0010
0000
0001
0000
0100
0000
,  // measure 26
0010
0000
0001
0000
0100
0000
0010
0000
0100
0001
1000
0000
0010
0100
0001
0000
,  // measure 27
0010
0001
0100
0010
0001
0100
0001
0100
,  // measure 28
1000
0010
0001
0100
0010
0001
1000
0001
,  // measure 29
0100
0000
0010
0000
0001
0000
0100
0010
0001
0000
0100
0000
1000
0000
0010
0000
,  // measure 30
0001
0000
0010
0000
0100
0000
1000
0001
0100
0000
0010
0100
0001
0000
0010
0100
,  // measure 31
0001
0000
0100
0000
0010
0000
0001
0010
0100
0000
0010
0000
0001
0000
1000
0000
,  // measure 32
0001
0000
0010
0000
0100
0000
0001
0100
1000
0000
0010
0100
0001
0000
0010
0100
,  // measure 33
0001
0000
0100
0000
0010
0000
0001
1000
0100
0000
0001
0000
0100
0000
0010
0000
,  // measure 34
0001
0000
0100
0000
1000
0000
0001
0100
0010
0000
0001
0100
0010
0000
0001
0100
,  // measure 35
2000
0000
0000
0000
,  // measure 36
3000
0000
0100
0000
0010
0000
0100
0001
,  // measure 37
1000
0100
0000
0001
,  // measure 38
0100
0000
0010
0000
0001
0100
1000
0010
,  // measure 39
0100
0000
0000
0000
0010
0000
0000
0000
0100
0001
1000
0000
0100
0001
0010
0000
,  // measure 40
0100
0010
0100
0000
0100
0010
0001
0100
,  // measure 41
0100
0000
0001
0100
0010
0001
0010
0000
0100
0000
0010
0000
0001
0000
0100
0000
,  // measure 42
0000
1000
0100
0001
0010
0000
0100
0000
,  // measure 43
0010
0001
0100
0010
0010
0100
0001
0000
,  // measure 44
1000
0010
0100
0001
0100
0001
1000
0100
,  // measure 45
0010
0000
0001
0100
1000
0010
0001
0000
1000
0000
0010
1000
0100
0001
0010
0000
,  // measure 46
0100
0000
0001
1000
0001
0100
0010
0000
0100
0000
0001
1000
0100
0001
0010
0000
,  // measure 47
0010
0000
0001
0100
0001
0100
1000
0000
0010
0000
0100
0001
1000
0001
0010
0000
,  // measure 48
0001
0000
0010
0100
0001
1000
0001
0000
0010
0000
0001
0100
0001
1000
0100
0000
,  // measure 49
0010
0000
0100
0001
1000
0001
0010
0000
0100
0000
0001
0100
0001
1000
0001
0000
,  // measure 50
0010
0000
0001
0100
0001
1000
0100
0010
0100
0001
1000
0100
0010
0100
0001
1000
,  // measure 51
0100
0000
0001
0010
0100
0001
1000
0000
0001
0000
0100
0010
0100
0001
1000
0000
,  // measure 52
0001
0000
0010
0100
0001
1000
0100
0000
0000
0000
0001
0000
0000
0000
0100
0000
,  // measure 53
0001
0000
0010
0100
0000
0001
1000
0000
0100
0000
0010
0100
0000
0001
1000
0000
,  // measure 54
0100
0000
0010
0100
0000
0001
1000
0000
0100
0000
0001
0010
0000
0100
0001
0000
,  // measure 55
1000
0000
0100
0000
0001
0000
0010
0100
0001
0010
0100
0010
0001
0010
1000
0000
,  // measure 56
0010
0001
0100
0010
0001
0100
0001
0100
,  // measure 57
1000
0000
0100
0000
0010
0000
0001
1000
0100
0000
0100
0000
0010
0000
0001
0000
,  // measure 58
1000
0000
0001
0000
0100
0000
0010
0000
0001
0000
0010
0001
1000
0000
0100
0000
,  // measure 59
1000
0000
0100
0000
0010
0000
0001
1000
0100
0000
0010
0000
0100
0000
0001
0000
,  // measure 60
0100
0000
0010
0000
0001
1000
0100
0000
0010
0000
0100
0000
0001
0000
1000
0000
,  // measure 61
0010
0000
0001
0000
0100
1000
0001
0000
0100
0000
0010
0000
1000
0001
0100
0000
,  // measure 62
0010
0100
0010
0001
1000
0001
0100
0010
,  // measure 63
0100
0001
1000
0001
0010
0100
0001
0000
0100
0000
0010
0000
0001
0000
1000
0000
,  // measure 64
0001
0000
0010
0000
0100
0000
0010
0001
0100
0001
0100
0010
0001
1000
0001
0100
,  // measure 65
1000
0100
0001
1000
0001
0010
0100
0010
0001
0000
0010
0000
0001
0000
0100
0000
,  // measure 66
1000
0000
0010
0000
0001
0000
0100
0000
0010
0001
0100
0010
0001
1000
0001
0100
,  // measure 67
1000
0000
0010
0000
0001
0000
1000
0010
0100
0000
0001
0010
0100
0000
0001
1000
,  // measure 68
0100
0000
0100
0000
0010
0000
0001
0100
0010
0000
0001
0100
0010
0000
0001
1000
,  // measure 69
0100
0000
0100
0000
0010
0000
0001
0100
0010
0000
0001
0100
0010
0000
0001
0100
,  // measure 70
1000
0000
0100
0000
0010
0000
0001
0100
0010
0000
0001
0100
0010
0000
0001
0100
,  // measure 71
1000
0000
0010
0100
0000
0001
0010
0000
0100
0000
0001
0100
0000
0010
0100
0000
,  // measure 72
0001
0000
1000
0100
0000
0001
0010
0000
0100
0000
0010
0100
0000
0001
1000
0000
,  // measure 73
0100
0000
0001
0010
0000
0100
0001
0000
1000
0000
0100
0001
0000
0010
0100
0000
,  // measure 74
0001
0000
0010
0100
0000
0001
1000
0000
0010
0000
0100
0001
0000
0010
0100
0000
,  // measure 75
0001
0000
1000
0100
0000
0001
0010
0000
0100
0000
0001
0010
0000
0100
0001
0000
,  // measure 76
0010
0000
0001
0100
0000
0010
0100
0000
0010
0000
0100
0001
0000
1000
0100
0000
,  // measure 77
0001
0000
0010
0100
0000
0001
1000
0000
0100
0000
0001
0010
0000
0100
0001
0000
,  // measure 78
0010
0000
0100
0001
0000
1000
0100
0000
0001
0000
0010
0100
0000
0001
1000
0000
,  // measure 79
0010
0000
0100
0001
0000
1000
0100
0000
0001
0000
0010
0100
0000
0001
1000
0000
,  // measure 80
0100
0000
0001
0010
0000
0100
0001
0000
1000
0000
0100
0001
0000
0010
0100
0000
,  // measure 81
0001
0000
1000
0100
0000
0001
0010
0000
0100
0000
0001
0010
0000
0100
0001
0000
,  // measure 82
1000
0000
0100
0001
0000
0010
0100
0000
0001
0000
1000
0100
0000
0001
0010
0000
,  // measure 83
0100
0000
0001
0010
0000
0100
0001
0000
1000
0000
0100
0001
0000
0010
0100
0000
,  // measure 84
0001
0000
1000
0100
0000
0001
0010
0000
0010
0000
0001
0100
0000
0100
0010
0000
,  // measure 85
0010
0000
0001
0100
0000
0010
0001
0000
0100
0000
0010
0001
0000
1000
0100
0000
,  // measure 86
0100
0000
0010
0001
0000
0100
0010
0000
0001
0000
0100
0010
0000
0001
0100
0000
,  // measure 87
2000
0000
0000
0000
,  // measure 88
0000
0000
0000
3000
,  // measure 89
1000
0000
0100
0001
0010
0001
0100
0000
0100
0000
0010
0000
0001
0000
0100
0000
,  // measure 90
0010
0001
0100
0010
0001
0100
0001
0100
,  // measure 91
1000
0000
0010
0001
0100
0010
0001
0000
0100
0000
0010
0001
0100
0010
0001
0100
,  // measure 92
1000
0000
0010
0000
0001
0000
0100
0000
0010
0001
0001
0010
0100
0010
0001
0000
,  // measure 93
0100
0010
0001
0100
0001
0100
1000
0100
,  // measure 94
0010
0000
0001
0000
0100
0000
1000
0000
0001
0100
0010
0000
0100
0001
0010
0000
,  // measure 95
0010
0000
0001
0010
0100
0001
0010
0000
0001
0000
0100
0000
0001
0000
0100
0000
,  // measure 96
0010
0000
0001
0000
1000
0000
0001
0000
0100
0001
0010
0000
0001
0010
0100
0000
,  // measure 97
1000
0000
0100
0001
0010
0100
0001
0000
0010
0000
0100
0000
0010
0000
0001
0000
,  // measure 98
1000
0000
0001
0000
0100
0000
0010
0000
0001
0010
0100
0000
0001
0010
0100
0000
,  // measure 99
1000
0000
0100
0010
0001
0100
0001
0000
0100
0000
0010
0001
1000
0001
0100
0000
,  // measure 100
0010
0001
0100
0010
0001
0100
0001
0100
,  // measure 101
1000
0000
0101
0010
0001
1000
0001
0100
0010
0000
0001
0100
0010
0001
0100
0000
,  // measure 102
1000
0000
0001
0000
0100
0000
0010
0001
0010
0100
0010
0001
0001
0100
1000
0010
,  // measure 103
0100
0000
0001
0100
0001
0100
1000
0000
0010
0000
0001
0100
0001
1000
0100
0000
,  // measure 104
0100
0000
0010
0001
1000
0001
0100
0100
0010
0001
0100
0010
0001
0100
0001
0100
,  // measure 105
1000
0000
0010
0100
0000
0001
1000
0000
0100
0000
0001
0010
0000
0100
0001
0000
,  // measure 106
0010
0000
0100
0001
0000
1000
0100
0000
0000
0000
0000
0000
0000
0000
0000
0000
;
