#TITLE:stars;
#SUBTITLE:;
#ARTIST:PinkPantheress;
#TITLETRANSLIT:;
#SUBTITLETRANSLIT:;
#ARTISTTRANSLIT:;
#GENRE:;
#CREDIT:;
#BANNER:;
#BACKGROUND:;
#LYRICSPATH:;
#CDTITLE:;
#MUSIC:PinkPantheress - Stars (Official Lyric Video).ogg;
#OFFSET:0.000000;
#SAMPLESTART:100.059883;
#SAMPLELENGTH:12.000000;
#SELECTABLE:YES;
#BPMS:0.000000=139.000000
,168.000000=138.000000
,232.000000=139.000000
;
#STOPS:0.000000=0.100000
;
#BGCHANGES:;
#KEYSOUNDS:;
#ATTACKS:;

//---------------dance-single - ----------------
#NOTES:
     dance-single:
     :
     Hard:
     14:
     0.586622,0.728561,0.014087,0.070435,0.352175,583.000000,581.000000,2.000000,10.000000,0.000000,0.000000,0.586622,0.728561,0.014087,0.070435,0.352175,583.000000,581.000000,2.000000,10.000000,0.000000,0.000000:
// measure 0
0000
0000
0000
0000
,  // measure 1
0000
0000
0000
0000
,  // measure 2
1000
0100
0001
1000
0001
0010
0100
0001
0010
0100
0001
1000
0001
0010
0100
0010
,  // measure 3
0100
0000
0001
1000
0100
0000
0000
0000
0000
0000
0000
0000
0000
0000
0000
0000
,  // measure 4
0100
0010
0100
0001
1000
0001
0010
0100
0001
1000
0001
0010
0100
0001
1000
0001
,  // measure 5
0100
0000
0010
0100
0001
0000
0000
0000
0000
0000
0000
0000
0000
0000
0000
0000
,  // measure 6
0010
0100
0001
1000
0010
0001
0010
0100
0001
1000
0001
0010
0100
0001
1000
0001
,  // measure 7
0010
0000
0100
0001
0010
0000
0000
0000
0000
0000
0000
0000
0000
0000
0000
1000
,  // measure 8
0100
0001
0100
0001
0010
0100
0001
1000
0001
0010
0100
0001
0100
0001
0010
0100
,  // measure 9
0001
0000
0010
0100
0010
0000
0000
0000
0000
0000
0000
0000
0000
0000
0000
0000
,  // measure 10
0010
0001
1000
0001
0100
0010
0001
0100
,  // measure 11
1000
0100
0010
0100
0001
0100
0010
1000
,  // measure 12
0010
0001
0100
0001
0100
0010
0001
0100
,  // measure 13
0001
0100
0010
0001
0100
0001
0100
0010
,  // measure 14
1001
0100
0010
0100
0010
0001
0100
0001
,  // measure 15
0100
0000
0010
0000
0001
0000
0100
0000
0010
0000
1000
0001
0100
0010
0100
0000
,  // measure 16
0001
0000
1000
0100
0001
0000
0010
0000
0100
0000
0010
0000
0001
0000
0100
0000
,  // measure 17
0001
0100
0010
0001
1000
0001
0100
0010
,  // measure 18
0100
0000
0001
0000
0100
0000
0001
0000
0010
0100
0001
1000
0001
0000
0000
0000
,  // measure 19
0000
0000
0000
0000
0000
0000
0000
0100
,  // measure 20
0010
0000
0000
0100
0000
0000
0001
0000
1000
0000
0100
0000
0001
0000
0000
0000
,  // measure 21
0000
0000
0000
0000
,  // measure 22
0010
0000
0001
0010
0000
0100
0001
0000
0010
0000
0001
0100
0000
0000
0000
0000
,  // measure 23
0000
0000
0101
0000
0000
0000
0000
0100
,  // measure 24
0010
0001
0100
0001
0100
0010
0001
0000
,  // measure 25
0000
0000
0000
0000
0000
0000
0000
0000
0000
0000
0001
0000
0100
0000
0010
0100
,  // measure 26
0001
0100
0010
0001
1000
0001
0100
0010
,  // measure 27
0100
0000
0010
0100
0001
0000
0010
0000
0100
0000
0010
0001
0100
0010
0100
0000
,  // measure 28
0001
0000
0010
0000
0100
0000
0010
0001
0100
0000
0010
0000
0001
0000
0100
0000
,  // measure 29
0010
0001
1000
0001
0100
0010
0001
0100
,  // measure 30
1000
0010
0001
0100
0001
0100
0010
0001
,  // measure 31
0100
0001
0100
0010
0001
1000
0001
0100
,  // measure 32
0010
0001
0100
0001
0100
0010
0001
1000
,  // measure 33
0001
0100
0010
0001
0100
0001
0100
0000
,  // measure 34
0001
0100
0010
0001
0100
0010
0001
0100
0001
0100
0010
0001
1000
0001
0100
0010
,  // measure 35
1000
0000
0100
0001
0010
0000
0000
0000
0000
0000
0000
0000
0000
0000
0000
0000
,  // measure 36
0100
0001
1000
0100
0001
0100
0001
1000
0001
0010
0100
0001
1000
0001
0010
0100
,  // measure 37
0001
0000
0010
0100
0001
0000
0000
0000
0000
0000
0000
0000
0000
0000
0000
1000
,  // measure 38
0100
0001
0100
0001
1000
0001
0010
0100
0001
1000
0001
0010
0100
0001
0100
0001
,  // measure 39
0010
0000
0100
0001
0010
0000
0000
0000
0000
0000
0000
0000
0000
0000
0000
0100
,  // measure 40
0010
0001
1000
0001
0100
0010
0001
0100
0001
0100
0010
0001
1000
0001
0100
0010
,  // measure 41
1000
0000
0100
0001
0010
0000
0000
0000
0000
0000
0010
0000
0001
0000
1000
0000
,  // measure 42
0100
0000
0000
0010
0000
0000
0100
0000
0000
0000
0000
0000
0010
0000
0100
0000
,  // measure 43
0001
0000
1000
0100
0000
0001
0010
0000
0000
0000
0010
0000
0001
0000
0100
0000
,  // measure 44
0010
0001
0100
0000
0001
0100
0010
0001
,  // measure 45
1000
0001
0100
1000
0000
0000
0001
1000
,  // measure 46
0001
0000
0010
0100
0000
0001
1000
0000
0000
0000
0000
0000
0100
0000
0001
0000
,  // measure 47
0010
0000
0100
0010
0000
0100
0001
0000
0000
0000
0001
0000
0100
0000
0010
0000
,  // measure 48
0100
0001
1000
0000
0001
0100
0010
0001
,  // measure 49
0100
0001
0100
1000
0000
0100
0001
0000
,  // measure 50
0010
0100
0001
1000
0001
0010
0100
0010
,  // measure 51
0001
0100
0001
0100
0010
0001
1000
0001
,  // measure 52
0100
0000
0010
0000
0001
0000
0100
0000
0001
0000
0100
0000
0010
0000
0100
0001
,  // measure 53
0010
0100
0001
0000
0100
0000
0010
0000
0001
0000
0100
0000
0001
0000
0100
0000
,  // measure 54
0010
0001
0100
0001
0100
0001
1000
0100
,  // measure 55
1000
0001
0100
0010
0001
1000
0001
0100
,  // measure 56
0010
0000
0010
0100
0000
0001
0100
0020
,  // measure 57
0000
0000
0000
0030
,  // measure 58
0100
0001
0100
0010
0001
0100
1000
0100
,  // measure 59
0010
0001
0100
0001
0100
0010
0001
0100
,  // measure 60
0001
0100
0010
0001
0100
0001
0100
0010
,  // measure 61
0001
1000
0001
0100
0010
0001
0100
0001
,  // measure 62
0100
0010
0001
0100
0001
0100
0010
0001
,  // measure 63
1000
0001
0100
0010
0001
0100
0001
0100
,  // measure 64
0010
0001
1000
0001
0100
0010
0001
0100
,  // measure 65
0001
0100
0010
0001
1000
0001
0100
0000
,  // measure 66
0010
0100
0010
0001
1000
0001
0100
0010
,  // measure 67
0001
0100
0001
0100
0010
0001
1000
0001
,  // measure 68
0100
0010
0001
0100
0001
0100
0010
0001
,  // measure 69
1000
0000
0001
0000
0100
0000
0000
0000
0000
0000
0000
0000
0010
0100
0000
0001
,  // measure 70
0010
0100
0010
0100
1000
0100
0010
0001
,  // measure 71
0100
0001
0100
0010
0001
0100
0001
0100
,  // measure 72
0010
0001
1000
0001
0100
0010
0001
0100
,  // measure 73
0001
0100
0010
0001
0100
0001
0100
1000
,  // measure 74
0200
0000
0000
0300
,  // measure 75
0002
0000
0000
0003
,  // measure 76
2000
0000
0000
3000
,  // measure 77
0020
0000
0000
0030
,  // measure 78
0200
0000
0000
0300
,  // measure 79
2000
0000
0000
3000
,  // measure 80
0002
0000
0000
0003
,  // measure 81
0020
0000
0000
0030
,  // measure 82
0200
0000
0000
0300
;
