#TITLE:something like a party;
#SUBTITLE:;
#ARTIST:School Gyrlz;
#TITLETRANSLIT:;
#SUBTITLETRANSLIT:;
#ARTISTTRANSLIT:;
#GENRE:;
#CREDIT:;
#BANNER:;
#BACKGROUND:;
#LYRICSPATH:;
#CDTITLE:;
#MUSIC:Something Like A Party [UrvHX6TtXQk].ogg;
#OFFSET:0.000000;
#SAMPLESTART:100.059883;
#SAMPLELENGTH:12.000000;
#SELECTABLE:YES;
#BPMS:0.000000=130.000000
;
#STOPS:0.000000=0.300000
;
#BGCHANGES:;
#KEYSOUNDS:;
#ATTACKS:;

//---------------dance-single - ----------------
#NOTES:
     dance-single:
     :
     Hard:
     11:
     0.448196,0.629211,0.115770,0.081039,0.054026,813.000000,783.000000,30.000000,21.000000,0.000000,0.000000,0.448196,0.629211,0.115770,0.081039,0.054026,813.000000,783.000000,30.000000,21.000000,0.000000,0.000000:
// measure 0
0000
0000
0000
0000
,  // measure 1
0000
0000
0000
0000
,  // measure 2
0000
0000
0000
0000
,  // measure 3
0000
0000
0000
0000
,  // measure 4
0000
0000
0000
0000
,  // measure 5
0000
0000
0000
0000
,  // measure 6
0000
0000
0000
0000
,  // measure 7
0000
0000
0000
0000
,  // measure 8
0010
0000
0001
0000
0100
0010
0000
0001
,  // measure 9
0000
0100
0000
0010
0001
1000
0001
0100
,  // measure 10
1000
0000
0100
0000
0001
0010
0100
0001
,  // measure 11
0000
0010
0001
0100
0010
0000
0001
0100
,  // measure 12
1000
0000
0010
0000
0100
0010
0000
0001
,  // measure 13
0000
1000
0001
0100
0010
0000
0001
0100
,  // measure 14
1000
0000
1000
0000
0100
0001
0000
0010
,  // measure 15
1000
0001
0100
0000
0020
0000
0030
0000
,  // measure 16
0010
0000
0010
0000
0010
0000
0000
0010
0000
0000
0001
0000
0100
0000
1000
0000
,  // measure 17
0100
0000
0100
0000
0100
0000
0000
0100
0000
0000
0000
0000
0020
0000
0000
0000
,  // measure 18
0000
0000
0000
0000
0000
0100
0100
0100
,  // measure 19
0030
0100
1000
0001
0100
0010
1001
0001
,  // measure 20
1000
0000
1000
0000
1000
0000
0000
1000
0000
0000
0100
0000
0001
0000
0010
0000
,  // measure 21
0010
0000
0010
0000
0010
0000
0000
0010
0000
0000
0000
0000
0200
0000
0000
0000
,  // measure 22
0000
0000
0000
0300
,  // measure 23
0010
0001
1000
0001
0100
0010
0101
0100
,  // measure 24
1000
0010
0100
0010
0001
1000
0001
0100
,  // measure 25
0010
0001
0100
0001
0100
0010
0001
1000
,  // measure 26
0001
0100
0010
0001
0100
0001
0100
0010
,  // measure 27
0001
1000
0001
0100
0001
0100
0011
0001
,  // measure 28
0100
0010
0001
1000
0001
0100
1000
0010
,  // measure 29
0001
0100
0010
0001
1000
0001
0100
1000
,  // measure 30
1000
0000
1000
0000
1000
0000
0000
1000
0000
0000
0000
0000
0020
0000
0000
0000
,  // measure 31
0000
0000
0000
0000
0030
0000
1001
0001
,  // measure 32
0110
0101
0110
0101
,  // measure 33
0100
0001
0100
0010
0000
0100
0001
0100
,  // measure 34
1000
0010
0010
0100
0001
0100
0010
0001
,  // measure 35
1000
0001
0100
0010
0000
0100
0001
0100
,  // measure 36
1000
0000
0010
0000
0001
0000
0100
0000
1000
0000
0000
0000
0100
0001
0000
0010
,  // measure 37
1000
0100
0010
0100
0001
0000
0001
0100
,  // measure 38
0010
0000
0001
0100
1000
0000
1000
0000
1001
0000
1001
0000
1001
0000
0010
0000
,  // measure 39
0100
0010
0001
0100
0000
2000
0000
3000
,  // measure 40
0001
0000
1000
0000
0001
0000
0100
0000
0010
0000
0000
0001
0000
0000
1000
0000
,  // measure 41
0000
0100
0010
0100
0000
1000
0001
0100
,  // measure 42
1000
0000
0010
0001
0100
1000
0000
0100
,  // measure 43
0000
0010
0001
0100
0000
0010
0001
0100
,  // measure 44
1000
0000
0000
0000
0001
0000
0100
0000
0010
0000
0000
0001
0000
0000
0100
0000
,  // measure 45
0000
0001
0000
0100
0000
0010
0001
0100
,  // measure 46
1000
0000
0100
0001
0010
0001
0100
1000
,  // measure 47
0000
0100
0000
0010
0000
0001
1001
0000
,  // measure 48
0100
0000
0100
0000
0100
0000
0000
0100
0000
0000
0001
0000
0100
0000
0001
0000
,  // measure 49
0010
0000
0010
0000
0010
0000
0000
0010
0000
0000
0000
0000
0200
0000
0000
0000
,  // measure 50
0000
0000
0000
0000
0000
0010
0010
0010
,  // measure 51
0300
0000
0001
1000
0100
0001
0100
0001
,  // measure 52
0010
0000
0010
0000
0010
0000
0000
0010
0000
0000
0001
0000
0100
0000
1000
0000
,  // measure 53
0100
0000
0100
0000
0100
0000
0000
0100
0000
0000
0000
0000
0200
0000
0000
0000
,  // measure 54
0000
0000
0000
0000
0000
0010
0310
0010
,  // measure 55
0010
0001
0100
0010
0001
0100
0001
0100
,  // measure 56
0010
0001
1000
0001
0100
0010
0001
0100
,  // measure 57
1000
0010
0100
0010
0001
0100
0001
0100
,  // measure 58
0001
0100
0010
0001
0100
0001
0100
0010
,  // measure 59
0001
1000
0001
0100
0010
0001
0100
0001
,  // measure 60
0100
0010
0001
1000
0001
0100
0010
0001
,  // measure 61
0100
0001
0100
0010
0001
0100
0001
0100
,  // measure 62
1000
0000
1000
0000
1000
0000
0000
1000
0000
0000
0000
0000
0200
0000
0000
0000
,  // measure 63
0000
0000
0000
0000
0300
0000
1001
0001
,  // measure 64
1000
0100
0010
0001
0100
0000
0010
0001
,  // measure 65
1000
0001
0100
1000
0000
0001
0100
1000
,  // measure 66
0100
0010
0001
0100
0010
0001
0100
0010
,  // measure 67
0001
1000
0001
0100
0000
1000
0100
0001
,  // measure 68
0010
0100
0001
0010
0010
0000
0100
0010
,  // measure 69
0001
1000
0001
0100
1000
0010
0001
0100
,  // measure 70
0101
0101
0101
0101
1001
0100
0010
0001
,  // measure 71
0100
0001
0100
1000
0000
1100
1100
1100
,  // measure 72
0010
0000
0000
0000
0001
0000
0100
0000
1000
0000
0000
0001
0000
0000
0010
0000
,  // measure 73
0000
1000
0001
0100
0000
0010
0001
0100
,  // measure 74
1000
0000
0010
0001
0100
0010
0000
0001
,  // measure 75
0000
0100
0000
0010
0000
0001
0100
1000
,  // measure 76
0100
0000
0000
0000
0010
0000
0100
0000
0001
0000
0000
1000
0000
0000
0100
0000
,  // measure 77
0000
0100
0000
0010
0001
1000
0001
0100
,  // measure 78
1000
0000
0001
0100
1000
0001
0100
0010
,  // measure 79
0000
0001
0000
0100
0000
0010
1001
0000
,  // measure 80
0001
0000
0001
0000
0001
0000
0000
0001
0000
0000
1000
0000
0100
0000
0001
0000
,  // measure 81
0100
0000
0100
0000
0100
0000
0000
0100
0000
0000
0000
0000
0002
0000
0000
0000
,  // measure 82
0000
0000
0000
0000
0000
0100
0100
0100
,  // measure 83
0003
0100
0001
0100
0001
1000
0011
0100
,  // measure 84
1000
0000
1000
0000
1000
0000
0000
1000
0000
0000
0001
0000
0100
0000
1000
0000
,  // measure 85
0100
0000
0100
0000
0100
0000
0000
0100
0000
0000
0000
0000
0020
0000
0000
0000
,  // measure 86
0000
0000
0000
0000
0000
0100
0130
0100
,  // measure 87
0100
0010
0100
0010
0100
0010
0001
0100
,  // measure 88
0001
0100
0010
0100
1000
0100
0010
0100
,  // measure 89
0001
0100
1000
0100
0010
0001
0100
0001
,  // measure 90
0100
0010
0001
1000
0001
0100
0010
0001
,  // measure 91
0100
0001
0100
0010
0001
0100
0001
0100
,  // measure 92
0010
0001
1000
0001
0100
0010
0001
0100
,  // measure 93
0001
0100
0010
0001
1000
0001
0100
0010
,  // measure 94
0100
0000
0100
0000
0100
0000
0000
0100
0000
0000
0000
0000
0220
0000
0000
0000
,  // measure 95
0000
0000
0330
0010
,  // measure 96
0100
0000
1000
0000
0001
0000
0100
0010
,  // measure 97
0000
0001
0000
0100
0010
0000
0001
0100
,  // measure 98
0000
0100
0000
0010
0001
0000
0100
1000
,  // measure 99
0000
0010
0000
0000
0001
0100
0001
0100
,  // measure 100
2002
0000
0000
0000
,  // measure 101
0000
0000
0000
0000
,  // measure 102
0000
0000
3003
0000
0001
0000
0100
1000
,  // measure 103
0000
0100
0010
0000
0001
0100
0001
0100
,  // measure 104
1000
0000
0100
0000
0010
0001
0100
0010
,  // measure 105
0001
0100
0001
1000
0100
0000
0001
0010
,  // measure 106
0010
0000
0010
0000
0010
0000
0000
0010
0000
0000
0000
0000
0200
0000
0000
0000
,  // measure 107
0010
0010
0010
0010
,  // measure 108
0010
0000
0010
0000
0310
0000
0001
1000
,  // measure 109
0100
0000
0100
0010
0001
0000
1000
0001
,  // measure 110
1000
0100
0020
0000
0000
0000
0030
0000
,  // measure 111
0100
0001
1000
0001
0010
0100
0011
0000
,  // measure 112
0001
0000
0001
0000
0001
0000
0000
0001
0100
0000
0100
0000
0100
0000
0000
0100
,  // measure 113
0010
0000
0010
0000
0010
0000
0000
0010
0000
0000
0000
0000
2002
0000
0000
0000
,  // measure 114
0000
0000
0000
0000
3003
0001
0100
1000
,  // measure 115
0000
0010
0100
0001
0100
0010
1001
0001
,  // measure 116
0100
0000
0100
0000
0100
0000
0000
0100
0000
0000
0001
0000
1000
0000
0001
0000
,  // measure 117
0010
0000
0010
0000
0010
0000
0000
0010
0000
0000
0000
0000
0200
0000
0000
0000
,  // measure 118
0000
0000
0000
0000
0000
0010
0310
0010
,  // measure 119
0010
0001
1000
0001
0100
0010
1001
0001
,  // measure 120
0010
0100
0010
0001
1000
0001
0100
0010
,  // measure 121
0001
0100
0001
0100
0010
0001
1000
0001
,  // measure 122
0100
0010
0001
0100
0001
0100
0010
0001
,  // measure 123
1000
0001
0100
0010
0001
0100
0001
0100
,  // measure 124
0010
0001
1000
0001
0100
0010
0001
0100
,  // measure 125
0001
0100
0010
0001
1000
0001
0100
0010
,  // measure 126
1000
0000
1000
1000
1000
1000
1000
2002
,  // measure 127
0000
0000
0000
3003
,  // measure 128
0010
0100
0001
0010
0100
0001
0100
1000
,  // measure 129
0010
0100
0001
0010
0010
0001
0100
1000
,  // measure 130
0010
0001
0100
0001
0100
0010
0001
1000
,  // measure 131
0001
0100
0010
0001
0100
0001
0100
0010
,  // measure 132
0001
1000
0001
0100
0010
0001
0100
0001
,  // measure 133
0100
0010
0001
1000
0001
0100
0010
0001
,  // measure 134
0100
0001
0100
0010
0001
1000
0001
0100
,  // measure 135
0010
0001
1000
0001
0100
0010
0100
1000
;
