#VERSION:0.83;
#TITLE:solo;
#SUBTITLE:;
#ARTIST:Fred Again & Blanco;
#TITLETRANSLIT:;
#SUBTITLETRANSLIT:;
#ARTISTTRANSLIT:;
#GENRE:;
#ORIGIN:;
#CREDIT:;
#BANNER:;
#BACKGROUND:;
#PREVIEWVID:;
#JACKET:;
#CDIMAGE:;
#DISCIMAGE:;
#LYRICSPATH:;
#CDTITLE:;
#MUSIC:solo.ogg;
#OFFSET:0.000000;
#SAMPLESTART:100.059883;
#SAMPLELENGTH:12.000000;
#SELECTABLE:YES;
#BPMS:0.000=140.000;
#STOPS:295.000=5.200;
#DELAYS:;
#WARPS:;
#TIMESIGNATURES:0.000=4=4;
#TICKCOUNTS:0.000=4;
#COMBOS:0.000=1;
#SPEEDS:0.000=1.000=0.000=0;
#SCROLLS:0.000=1.000;
#FAKES:;
#LABELS:0.000=Song Start;
#BGCHANGES:;
#KEYSOUNDS:;
#ATTACKS:
;

//---------------dance-single - ----------------
#NOTEDATA:;
#CHARTNAME:;
#STEPSTYPE:dance-single;
#DESCRIPTION:;
#CHARTSTYLE:;
#DIFFICULTY:Hard;
#METER:13;
#RADARVALUES:0.566578,0.654700,0.058324,0.024016,0.197273,1156.000000,1139.000000,17.000000,7.000000,0.000000,0.000000,0.000000,0.000000,0.000000,0.566578,0.654700,0.058324,0.024016,0.197273,1156.000000,1139.000000,17.000000,7.000000,0.000000,0.000000,0.000000,0.000000,0.000000;
#CREDIT:;
#NOTES:
// measure 0
0000
0000
0000
0000
,  // measure 1
0000
0000
0000
0000
,  // measure 2
0000
0000
0000
0000
,  // measure 3
0000
0000
0001
1000
0001
0100
1000
0001
,  // measure 4
0100
0000
0000
0000
0000
0000
0100
0000
0001
0000
1000
0100
0001
0000
0100
0000
,  // measure 5
1000
0000
0000
0000
0100
0000
0010
0000
0100
0000
0010
0000
1000
0100
0001
0000
,  // measure 6
0010
0000
0000
0000
0100
0000
0001
0000
0100
0000
0010
0000
1000
0100
0001
0000
,  // measure 7
0010
0000
0000
0000
0100
0000
0001
0000
0100
0000
0010
0000
0100
0001
0010
0000
,  // measure 8
0100
0001
0010
0100
0001
0100
0001
0100
,  // measure 9
1000
0000
0001
0000
1000
0000
0001
0000
0100
0000
0010
0000
1000
0100
0001
0000
,  // measure 10
1000
0000
0100
0000
0010
0100
0001
0000
0001
0000
0100
0000
0001
0000
0010
0100
,  // measure 11
0001
0000
0001
0000
0100
0000
0001
0000
0100
0000
0010
0000
0001
0100
1000
0000
,  // measure 12
0001
1000
0001
0100
0010
0001
0100
0001
,  // measure 13
0100
0000
0010
0000
0001
0000
1000
0000
0001
0000
0100
0000
0010
0000
0001
0100
,  // measure 14
1000
0000
0100
0000
0001
0000
0010
0000
0100
0010
0100
0000
0100
0000
0010
0000
,  // measure 15
1000
0100
0001
0000
0100
0000
0010
0000
0001
0100
1000
0000
0010
0000
0001
0000
,  // measure 16
1000
0100
0000
0010
0000
0100
0001
1000
,  // measure 17
0001
0100
0000
0010
0000
0001
0000
0100
,  // measure 18
0010
0000
0000
0100
0000
0000
0000
0000
0000
0001
0000
0000
1000
0000
0000
0000
0000
0000
0100
0000
0000
0000
0000
0000
0010
0000
0000
0000
0100
0000
0000
0000
0001
0000
0000
0000
1000
0000
0000
0000
0100
0000
0000
0000
0000
0000
0000
0000
,  // measure 19
0010
0000
0000
0100
0000
0000
0001
0000
0000
0010
0000
0000
1000
0000
0100
0000
0001
0000
1000
0000
0001
0000
0000
0000
,  // measure 20
0000
0000
0000
0000
0000
0000
0000
0000
0000
1000
0000
0000
0100
0000
0010
0000
0100
0000
0001
0000
1000
0000
0000
0000
,  // measure 21
0000
0000
0000
0000
0000
0000
0000
0000
0000
0010
0000
0000
0001
0000
0100
0000
0001
0000
1000
0000
0100
0000
0000
0000
,  // measure 22
0010
0000
0000
0000
0100
0000
0010
0000
1000
0100
0001
0000
0100
0000
0010
0000
,  // measure 23
0001
0100
0001
0000
0100
0000
0010
0000
0001
0100
0010
0000
0001
0000
0100
0000
,  // measure 24
1000
0100
0001
0100
0010
0001
1000
0001
,  // measure 25
0100
0000
0010
0000
1000
0100
0001
0000
0010
0000
0100
0000
0001
0000
1000
0100
,  // measure 26
0001
0000
0100
0000
0010
0001
0100
0000
0001
0000
0001
0000
0100
0000
0010
0000
,  // measure 27
0010
0000
1000
0100
0001
1000
0001
0000
0100
0000
0100
0000
0010
0000
0010
0000
,  // measure 28
0001
0100
0010
0001
0100
0001
0100
0010
,  // measure 29
0001
1000
0001
0100
0010
0001
1000
0010
,  // measure 30
0100
0000
0010
0000
1000
0000
0100
0001
0100
0000
0001
0000
1000
0000
0001
0000
,  // measure 31
0100
0010
0001
1000
0001
0100
0001
0100
,  // measure 32
1000
0100
0110
0001
1000
0001
0100
0010
,  // measure 33
0001
0100
0001
0100
0010
0001
1000
0001
,  // measure 34
0100
0000
0010
0000
1000
0000
0100
0000
0001
0010
0100
0000
0001
0000
0010
0000
,  // measure 35
0100
0001
1000
0000
0100
0000
0010
0000
0001
0100
0001
0000
0100
0000
0010
0000
,  // measure 36
0100
0010
1001
0010
0100
0001
1000
0001
,  // measure 37
0010
0001
0100
0001
0100
0010
0001
1000
,  // measure 38
0001
0100
0010
0001
0100
0001
0100
0010
,  // measure 39
0001
1000
0001
0100
0010
0001
0100
0001
,  // measure 40
1000
0100
0000
0100
0000
0010
0000
0001
,  // measure 41
0100
0000
1000
0000
0100
0000
0001
1000
0100
0000
0010
0100
0001
0000
1000
0000
,  // measure 42
0001
0000
0010
0000
0100
0000
0010
0001
0100
1000
0001
0000
0010
0000
0100
0000
,  // measure 43
0000
0000
0001
0100
1000
0000
0100
0001
0010
0000
0100
0001
0010
0000
1000
0000
,  // measure 44
0000
0010
0000
0001
0000
0100
0000
0001
,  // measure 45
0010
0100
0000
0001
0000
0010
0000
0100
,  // measure 46
0010
0000
0000
0000
1000
0000
0001
0000
0100
0010
0100
0000
0010
0000
0100
0000
,  // measure 47
0001
1000
0100
0000
0001
0000
0010
0000
0100
0001
0010
0000
0100
1000
0001
0000
,  // measure 48
0000
2002
0000
0000
,  // measure 49
3003
0000
0100
0001
1000
0001
0010
0100
,  // measure 50
1000
0000
0010
0100
0000
0001
1000
0000
0100
0000
0000
0010
0100
0000
0001
0000
,  // measure 51
1000
0000
0001
0000
0100
0000
0010
0000
1000
0000
0100
0001
0010
0000
1000
0000
,  // measure 52
0000
2002
0000
0000
,  // measure 53
3003
0000
0100
0001
1000
0001
0100
0010
,  // measure 54
1000
0000
0100
0001
0000
0010
0100
0000
0001
0000
0000
1000
0100
0000
0001
0000
,  // measure 55
0010
0000
0010
0000
0001
0000
0010
0000
0100
0000
0001
0100
1000
0000
0001
0000
,  // measure 56
0011
1000
0101
0100
1000
0001
0010
0010
,  // measure 57
0001
0100
0001
0100
0001
0100
0001
0100
,  // measure 58
0001
0100
0010
0001
1000
0001
0100
0010
,  // measure 59
0001
1000
0001
0100
0010
0001
1000
0001
,  // measure 60
0100
0010
1001
0100
0001
0100
0010
0001
,  // measure 61
0100
0001
0100
0010
0001
0100
0001
0100
,  // measure 62
0001
0100
0001
0100
0001
0100
0001
0100
,  // measure 63
1000
0001
0100
0010
0001
1000
0001
0100
,  // measure 64
1000
0001
0110
0100
0010
0001
1000
0001
,  // measure 65
0100
0001
0100
0001
0100
0001
0100
0001
,  // measure 66
0100
0000
1000
0000
0100
0000
0001
0000
1000
0100
0001
0000
0010
0000
0001
0000
,  // measure 67
0100
0001
0010
0000
0100
0000
0001
0000
1000
0100
0001
0000
0001
0000
0100
0000
,  // measure 68
1000
0100
0101
0010
0001
0100
0010
0001
,  // measure 69
1000
0001
0100
0010
0001
0100
0001
0100
,  // measure 70
0001
0100
0001
0100
0001
0100
0010
0001
,  // measure 71
0100
0001
0100
0010
0001
1000
0001
0100
,  // measure 72
0010
0001
0100
0010
,  // measure 73
0001
0100
0001
0100
,  // measure 74
0002
0000
0000
0000
,  // measure 75
0000
0000
0000
0000
,  // measure 76
0000
0000
0000
0000
,  // measure 77
0003
0000
0000
0000
0010
0000
0100
0000
0001
0000
0010
0000
0001
0010
0100
0000
,  // measure 78
0010
0000
0000
0000
0000
0000
0100
0000
1000
0010
0100
0000
0100
0000
0010
0000
,  // measure 79
0001
0000
0010
0000
0001
0000
1000
0000
0001
0000
0100
0000
0010
0001
0100
0000
,  // measure 80
1000
0000
0000
0000
0001
0000
1000
0000
0001
0000
0100
0000
0010
0100
0001
0000
,  // measure 81
1000
0000
0000
0000
0001
0000
1000
0000
0001
0000
0100
0000
0010
0001
0100
0000
,  // measure 82
0001
0100
0000
0000
0000
0000
1000
0001
,  // measure 83
0010
0000
0000
0000
0010
0000
0001
0000
0100
0000
0010
0000
1000
0100
0001
0000
,  // measure 84
0100
0000
0010
0000
0001
0000
1000
0000
0001
0000
0100
0000
0010
0000
0100
0001
,  // measure 85
0010
0000
0000
0000
1000
0000
0001
0000
0100
0000
0010
0000
1000
0100
0001
0000
,  // measure 86
0110
0000
0000
0000
,  // measure 87
0000
0000
0000
0000
0000
0000
0100
0000
0001
0000
0010
0000
1000
0000
0100
0001
,  // measure 88
0000
0000
0000
0000
0000
0000
1000
0000
0100
0010
0100
0000
0001
0000
1000
0000
,  // measure 89
0100
0001
0010
0000
0100
0000
0010
0000
0001
1000
0100
0000
0010
0000
0001
0000
,  // measure 90
1000
0010
0000
0010
0000
1000
0100
0001
,  // measure 91
0010
0000
0001
0000
0000
0000
0100
0000
0000
0000
0010
0000
0000
0000
0100
0001
,  // measure 92
0010
0100
0001
1000
0001
0010
0100
0001
0100
0010
0001
0100
,  // measure 93
1000
0000
0000
0001
0000
0000
0100
0000
0000
0010
0000
0000
1000
0000
0100
0000
0001
0000
0010
0000
0100
0000
0000
0000
,  // measure 94
0000
0000
0000
0001
0000
0000
0000
0000
0000
0100
0000
0000
0001
0000
1000
0000
0100
0000
0001
0000
0010
0000
0000
0000
,  // measure 95
0000
0000
0000
1000
0000
0000
0000
0000
0000
0100
0000
0000
0001
0000
0010
0000
0100
0000
0001
0000
1000
0000
0000
0000
,  // measure 96
0000
0000
0100
0000
0001
0000
1000
0000
0100
0010
0100
0000
0001
0000
0010
0000
,  // measure 97
0100
0001
1000
0000
0100
0000
0001
0000
0010
0100
0001
0000
1000
0000
0100
0000
,  // measure 98
0010
0001
0100
0001
0100
0010
0001
1000
,  // measure 99
0001
0000
0100
0000
0010
0001
0100
0000
0010
0000
0001
0000
0100
0000
1000
0000
,  // measure 100
0010
0000
0100
0000
0001
1000
0100
0000
0001
0000
1000
0000
0001
0000
0100
0000
,  // measure 101
0010
0000
1000
0100
0001
0010
0100
0000
0001
0000
0100
0000
0001
0000
0100
0000
,  // measure 102
1000
0010
0001
0100
0010
0001
0100
0001
,  // measure 103
0100
0010
0001
0100
0001
0100
0001
0100
,  // measure 104
1000
0000
0100
0000
0010
0000
0100
0001
1000
0000
0100
0000
0010
0000
0001
0000
,  // measure 105
1000
0001
0100
0010
0100
0001
1000
0000
,  // measure 106
0100
0001
1001
0010
0100
0010
0001
0100
,  // measure 107
0001
0000
0100
0000
0010
0000
1000
0100
0001
0000
0100
0001
0010
0000
0100
0000
,  // measure 108
0001
0000
1000
0000
0100
0000
0001
0000
0010
0100
0001
0000
1000
0000
0100
0000
,  // measure 109
0010
0000
0001
0100
1000
0000
0001
0100
0010
0000
1000
0001
0100
0000
0010
0000
,  // measure 110
0001
0100
0100
0010
0001
1000
0001
0100
,  // measure 111
1000
0010
0001
0100
0010
0001
1000
0001
,  // measure 112
0100
0010
0001
0100
0001
0100
0010
0001
,  // measure 113
1000
0001
0100
0010
0001
0000
0100
0000
,  // measure 114
0001
0000
0010
0100
0000
0010
0001
0000
,  // measure 115
1000
0000
0000
0100
0001
0000
0010
0000
,  // measure 116
0100
0001
0100
0001
,  // measure 117
0010
0000
0100
0001
1000
0000
0010
0000
,  // measure 118
0100
0000
0001
1000
0100
0000
0010
0000
,  // measure 119
0001
0000
0000
1000
0100
0000
0010
0000
,  // measure 120
0100
0010
0100
0010
,  // measure 121
0100
0010
0100
0010
,  // measure 122
0100
0010
0100
0010
,  // measure 123
0100
0010
0100
0010
,  // measure 124
0100
0010
0100
0010
,  // measure 125
0100
0010
0100
0010
,  // measure 126
0100
0001
0100
0010
,  // measure 127
0001
0100
0001
0100
,  // measure 128
1000
0100
0010
0001
,  // measure 129
0100
0001
0100
0010
,  // measure 130
0001
0100
0001
0100
,  // measure 131
0010
0001
0100
0001
,  // measure 132
0100
0010
0001
1000
,  // measure 133
0001
0100
0010
0001
,  // measure 134
0100
0001
0100
0010
,  // measure 135
0001
0100
0001
0100
,  // measure 136
0010
0001
1000
0001
,  // measure 137
0100
0010
0001
0100
,  // measure 138
0001
0100
0010
0001
,  // measure 139
1000
0001
0100
0010
,  // measure 140
1001
0000
0000
0000
0010
0000
0100
0000
0001
1000
0100
0000
0001
0000
0010
0000
,  // measure 141
0100
0001
0010
0000
0100
0000
0001
0000
1000
0100
0001
0000
0010
0000
0100
0000
,  // measure 142
2002
0000
0000
0000
,  // measure 143
0000
0000
0000
0000
3003
0000
1000
0100
,  // measure 144
1001
0100
0010
0001
0100
0001
0100
0010
,  // measure 145
0001
0100
0001
0100
0010
0001
1000
0001
,  // measure 146
0100
0010
1001
0001
0100
0010
0001
0010
,  // measure 147
0100
0001
1000
0001
0100
0001
0100
0010
,  // measure 148
0100
0000
0010
0000
0001
0000
0100
0000
0010
0001
0100
0000
0010
0000
0100
0000
,  // measure 149
1000
0100
0001
0000
0010
0000
0100
0000
0001
1000
0100
0000
0001
0000
0100
0000
,  // measure 150
0100
0010
1001
0010
0001
1000
0001
0100
,  // measure 151
0010
0001
0100
0001
0100
0010
0001
0100
,  // measure 152
0001
0100
0010
0001
1000
0001
0100
0010
,  // measure 153
0001
0100
0001
0100
0010
0001
1000
0001
,  // measure 154
0100
0010
1001
0010
0100
0001
0100
0010
,  // measure 155
0001
1000
0001
0100
0010
0001
0100
0001
,  // measure 156
0100
0010
0001
1000
0001
0100
0010
0001
,  // measure 157
0100
0001
0100
0010
0001
1000
0001
0100
,  // measure 158
0100
0001
0000
0010
0000
0001
0000
0100
,  // measure 159
0010
0000
1000
0000
0000
0000
0001
0000
0000
0000
0001
0000
0000
0000
0100
0010
,  // measure 160
0001
1000
0000
0010
0000
0001
0000
0010
,  // measure 161
0100
0000
0001
0000
0000
0000
0001
0000
0000
0000
0010
0000
0000
0000
0001
0100
,  // measure 162
1000
0001
0000
0100
0000
0010
0000
0100
,  // measure 163
0001
0000
0010
0000
0000
0000
0001
0000
0000
0000
0100
0000
0000
0000
0001
0100
,  // measure 164
1000
0010
0000
0100
0000
1000
0000
0001
,  // measure 165
0100
0000
0010
0000
0000
0000
0001
0000
0000
0000
0100
0000
0000
0010
1000
0001
;
