#TITLE:so what;
#SUBTITLE:;
#ARTIST:Jane Remover;
#TITLETRANSLIT:;
#SUBTITLETRANSLIT:;
#ARTISTTRANSLIT:;
#GENRE:;
#CREDIT:;
#BANNER:;
#BACKGROUND:;
#LYRICSPATH:;
#CDTITLE:;
#MUSIC:Jane Remover So What_ (audio).ogg;
#OFFSET:0.000000;
#SAMPLESTART:100.059883;
#SAMPLELENGTH:12.000000;
#SELECTABLE:YES;
#BPMS:0.000000=149.000000
,88.000000=139.000000
,96.000000=144.000000
,100.000000=149.000000
,283.000000=111.000000
,295.000000=149.000000
,375.000000=82.000000
,386.000000=149.000000
;
#STOPS:0.000000=0.100000
;
#BGCHANGES:;
#KEYSOUNDS:;
#ATTACKS:;

//---------------dance-single - ----------------
#NOTES:
     dance-single:
     :
     Hard:
     12:
     0.487259,0.693518,0.032445,0.040557,0.087197,841.000000,833.000000,8.000000,10.000000,0.000000,0.000000,0.487259,0.693518,0.032445,0.040557,0.087197,841.000000,833.000000,8.000000,10.000000,0.000000,0.000000:
// measure 0
0000
0000
0000
0000
,  // measure 1
0000
0000
0000
0000
,  // measure 2
0000
0000
0000
0000
,  // measure 3
0000
0000
0000
0000
,  // measure 4
1000
0000
0000
0002
0000
0000
0000
0000
0000
0000
0000
0000
0000
0000
0003
0000
,  // measure 5
0000
0000
0010
0000
0000
0100
0000
0000
0001
0000
0000
0000
1000
0100
0001
0000
,  // measure 6
0020
0000
0000
0030
,  // measure 7
0001
0100
0010
0001
0100
0001
0100
1000
0001
0000
0001
0000
1000
0000
0001
0000
,  // measure 8
1000
0001
0100
0000
0001
0100
0010
0001
,  // measure 9
1000
0000
0001
0000
0100
0000
0010
0000
0100
0000
0000
0001
0000
0000
0000
0000
,  // measure 10
0001
0100
0001
0100
1000
0000
0100
0010
,  // measure 11
0001
1000
0001
0100
1000
0000
1000
0001
,  // measure 12
0100
0010
0100
0000
0001
0000
0010
0100
,  // measure 13
0001
0000
1000
0000
0100
0000
0100
0100
,  // measure 14
0100
0001
0100
0010
0001
1000
0001
0100
,  // measure 15
1000
0000
0100
0000
0001
0100
1000
0000
,  // measure 16
0100
0000
0010
0000
0100
0001
1000
0000
,  // measure 17
0100
0000
0010
0000
1000
0001
0100
0000
,  // measure 18
0010
0000
0000
0000
0001
0000
0000
1000
0100
0000
0000
0010
0100
0000
0000
0000
,  // measure 19
0100
0001
0100
0001
1000
0000
0100
0100
,  // measure 20
0100
0010
0100
0001
1000
0001
0100
0010
,  // measure 21
0010
0000
0100
0001
0010
0000
1001
0000
,  // measure 22
1000
0100
0001
0001
1000
0001
0100
0010
,  // measure 23
0001
0100
0010
1000
,  // measure 24
0001
0000
0001
0100
,  // measure 25
1000
0001
0010
0000
0100
0000
1000
0000
,  // measure 26
0100
0001
0010
0100
0001
1000
0100
0000
,  // measure 27
0100
2000
0000
0000
0000
0000
0000
0000
,  // measure 28
0000
3000
0100
0010
,  // measure 29
0001
0100
1000
0000
0010
0000
0000
0100
,  // measure 30
0001
0000
0001
0100
0001
1000
0100
0000
,  // measure 31
0100
1000
0100
0001
,  // measure 32
1000
0000
0100
0010
,  // measure 33
0001
1000
0100
0000
0010
0000
0000
0000
,  // measure 34
1000
0000
0100
0001
0010
0010
0001
0100
,  // measure 35
1000
1000
0001
0000
1000
0000
0000
0000
,  // measure 36
0000
0000
0100
0001
,  // measure 37
0001
0000
0100
0000
1000
0000
0000
0001
0000
0000
0000
0000
0000
0000
0000
0000
,  // measure 38
0001
1000
0100
0010
0001
1000
0100
0000
,  // measure 39
0001
0100
1000
0000
0010
0000
0001
0000
,  // measure 40
0100
0000
1000
0100
0001
0001
1000
0001
,  // measure 41
0100
0010
0001
0000
0100
0000
1000
0000
,  // measure 42
0000
0000
0000
0010
0001
1000
0001
0100
,  // measure 43
1000
0010
0001
0000
0100
0000
0010
0000
,  // measure 44
0000
0000
0000
1000
0100
0001
1000
0000
,  // measure 45
0100
0010
1000
0100
0001
0000
0000
0000
,  // measure 46
0000
0000
1000
0100
0001
0100
0010
0001
,  // measure 47
1000
0000
0001
0100
0010
0000
0100
0001
,  // measure 48
0010
0000
0100
1000
0001
0010
0010
0001
,  // measure 49
0100
0000
0010
0000
1000
0000
0000
0001
0000
0000
0010
0000
0001
0000
1000
0000
,  // measure 50
0001
0100
1000
0000
0100
0010
0001
1000
,  // measure 51
0001
0100
1000
0000
0010
0001
1000
0001
,  // measure 52
0100
0000
0010
0000
0100
0010
0001
0000
,  // measure 53
0001
0000
0100
0000
0010
0010
0010
0100
,  // measure 54
0010
0001
1000
0001
0100
0001
0010
0000
,  // measure 55
0001
1000
0001
0100
,  // measure 56
1000
0000
0100
0001
,  // measure 57
1000
0100
0001
0000
0100
0000
0001
0010
,  // measure 58
0100
0100
0010
0001
0100
0001
1000
0000
,  // measure 59
0100
0002
0000
0000
0000
0000
0000
0000
,  // measure 60
0000
0003
0100
0100
,  // measure 61
0010
0001
1000
0000
0100
0000
0001
1000
,  // measure 62
0001
0000
0010
0001
0100
0010
0100
0000
,  // measure 63
1000
0001
0100
0010
,  // measure 64
0100
0000
0001
0010
,  // measure 65
0001
0100
1000
0000
0100
0000
0000
0000
,  // measure 66
1000
0000
0001
0010
0100
0010
0001
1000
,  // measure 67
0001
0010
0100
0000
0010
0000
0000
0000
,  // measure 68
0000
0000
1000
0010
,  // measure 69
0001
0100
1000
0010
0000
0000
0000
0000
,  // measure 70
1000
0100
0001
0010
0001
0100
1000
0000
,  // measure 71
0001
0100
0010
0000
,  // measure 72
0020
0000
0000
0030
,  // measure 73
0001
0100
1000
0000
0100
0000
0001
0000
0010
0000
0100
0000
0001
0000
0001
0000
,  // measure 74
0100
0010
0100
0101
,  // measure 75
0010
0000
0000
0000
0110
0000
0000
0000
1000
0000
0000
0001
0010
0000
0000
0000
,  // measure 76
0100
0001
0010
0100
0001
0000
1001
0000
,  // measure 77
0001
0100
0001
0100
1000
0000
0100
0000
,  // measure 78
0001
0100
0001
1000
0100
0010
0110
0010
,  // measure 79
0001
0000
0100
0000
1000
0000
0000
0000
0100
0001
1000
0000
0100
0000
0000
0000
,  // measure 80
1000
0001
0100
0001
0020
0000
0030
0100
,  // measure 81
0001
0000
0010
0000
0100
0000
0000
0000
0001
0000
0000
0010
0100
0000
0000
0000
,  // measure 82
0100
0000
0001
0000
0010
0000
0001
0000
1000
0000
0100
0000
0001
0000
0000
0010
,  // measure 83
0000
0000
0010
0100
0001
0100
1000
0000
,  // measure 84
0100
0001
1000
0000
0100
0000
0010
0100
,  // measure 85
0001
1000
0100
0001
0100
0000
0010
0000
0100
0000
0001
0000
0010
0000
0000
0000
,  // measure 86
1000
0000
0001
0000
0100
0000
0010
0000
0001
0000
0100
0000
1000
0000
0000
0001
,  // measure 87
0100
0000
0000
0100
0001
1000
0001
0100
,  // measure 88
1000
0100
0001
1000
,  // measure 89
0000
0000
0000
0100
0001
1000
0001
0100
,  // measure 90
0001
0000
0001
0100
1000
0000
0001
0000
,  // measure 91
0000
0000
0000
1000
0100
0001
0010
0000
,  // measure 92
0001
0100
0001
1000
0200
0000
0000
0000
,  // measure 93
0300
0000
0100
0001
0100
0000
0001
0100
,  // measure 94
0010
0000
0001
0100
1000
0000
0100
0001
,  // measure 95
0100
0001
0100
0010
0001
1000
0001
0100
,  // measure 96
0010
1000
0001
0100
1000
0001
0100
0001
,  // measure 97
0100
0010
0001
0100
0001
0100
0010
0001
,  // measure 98
1000
0001
0100
0010
0001
0100
0001
0100
,  // measure 99
0010
0001
1000
0001
0100
0010
0001
0100
,  // measure 100
0001
1000
0100
0100
0010
0001
0100
0001
,  // measure 101
0100
0010
0001
0100
0001
0100
0010
0001
,  // measure 102
0100
0001
0100
0001
0100
0010
0001
1000
,  // measure 103
0001
0100
0010
0001
0100
0001
0100
0010
,  // measure 104
0001
0100
0001
0100
0010
0001
1000
0001
,  // measure 105
0100
0010
0001
0100
0001
0100
0010
0001
,  // measure 106
1000
0001
0100
0010
0001
1000
0001
0100
,  // measure 107
1000
0100
0001
0100
0010
0000
0100
0001
,  // measure 108
0100
0000
1000
0000
1001
0000
0001
0010
,  // measure 109
0001
1000
0001
0100
1000
0000
0001
0100
,  // measure 110
0001
0000
0100
0000
0001
0100
0001
1000
,  // measure 111
0100
0000
0100
0010
0001
1000
0001
0100
,  // measure 112
1000
0000
0010
0001
0100
0010
0001
0000
,  // measure 113
0100
0000
0001
0100
0010
0000
1000
0001
,  // measure 114
0100
0100
0001
0100
0001
0100
1000
0001
,  // measure 115
1000
0000
0010
0001
0100
0000
0001
0000
,  // measure 116
0100
0000
0010
0000
0100
0001
1000
0001
0010
0000
0010
0000
0001
0000
0000
0000
,  // measure 117
0100
0000
0001
0100
1000
0000
0001
0100
,  // measure 118
1000
0010
0001
0100
1000
0100
0001
0000
,  // measure 119
0100
0000
0010
0001
0100
0000
0001
0000
,  // measure 120
0100
0000
0010
0001
0100
0010
0100
0001
1000
0100
0001
0000
0001
0000
0100
0000
,  // measure 121
1000
0010
0100
0000
0001
0000
0100
0000
1000
0100
0001
0000
0001
0000
0100
0000
,  // measure 122
0010
0001
0100
0000
0010
0100
0001
1000
0001
0000
0010
0000
0001
0000
0100
0000
,  // measure 123
1000
0000
0001
0000
0100
0000
0010
0000
1000
0100
0001
0100
0001
0000
0000
0000
,  // measure 124
0001
0100
1000
0010
,  // measure 125
0100
0010
0100
0001
1000
0100
0010
0001
,  // measure 126
1000
0001
0100
0000
0020
0000
0030
0000
,  // measure 127
0010
0001
0100
0010
0001
1000
0001
0100
,  // measure 128
1000
0001
0100
0000
0020
0000
0000
0030
,  // measure 129
0001
1000
0001
0100
1000
0000
0001
1000
,  // measure 130
0001
0000
0100
0000
1000
0100
0001
0000
0000
0000
0000
0000
0100
0000
0010
0000
,  // measure 131
0001
0000
1000
0000
0001
0000
0100
0000
1000
0100
0010
0000
0100
0001
1000
0000
,  // measure 132
0100
0001
0010
0000
0100
0001
1000
0000
0110
0000
0000
0000
0010
0000
0100
0000
,  // measure 133
0001
0010
0001
0100
1000
0000
0001
1000
,  // measure 134
0001
0100
1000
0000
0200
0000
0300
0000
,  // measure 135
0001
1000
0001
0100
1000
0001
0100
0010
,  // measure 136
0001
1000
0001
0100
1000
0000
0000
0000
,  // measure 137
0100
0000
0010
0000
0001
0000
0000
0100
1000
0000
0000
0000
0001
0000
0100
0000
,  // measure 138
0001
1000
0100
0000
0000
0000
0000
0000
,  // measure 139
1000
0000
0001
0000
0100
0000
0010
0000
0100
0001
1000
0000
0100
0001
0010
0000
,  // measure 140
0100
0001
1000
0000
0001
0100
0010
0000
1001
0000
0000
0000
0000
0000
0000
0000
,  // measure 141
0010
0001
1000
0001
0100
0010
0001
1000
,  // measure 142
0001
0100
1000
0000
0100
0000
0000
0000
;
