#VERSION:0.83;
#TITLE:so what we get drunk;
#SUBTITLE:;
#ARTIST:FLVCKKA;
#TITLETRANSLIT:;
#SUBTITLETRANSLIT:;
#ARTISTTRANSLIT:;
#GENRE:;
#ORIGIN:;
#CREDIT:;
#BANNER:;
#BACKGROUND:;
#PREVIEWVID:;
#JACKET:;
#CDIMAGE:;
#DISCIMAGE:;
#LYRICSPATH:;
#CDTITLE:;
#MUSIC:FLVCKKA - So What We Get Drunk_ (Extended Version) (Lyric Video).ogg;
#OFFSET:0.000000;
#SAMPLESTART:100.059883;
#SAMPLELENGTH:12.000000;
#SELECTABLE:YES;
#BPMS:0.000=147.000,
44.000=143.000,
60.000=156.000;
#STOPS:;
#DELAYS:;
#WARPS:;
#TIMESIGNATURES:0.000=4=4;
#TICKCOUNTS:0.000=4;
#COMBOS:0.000=1;
#SPEEDS:0.000=1.000=0.000=0;
#SCROLLS:0.000=1.000;
#FAKES:;
#LABELS:0.000=Song Start;
#BGCHANGES:;
#KEYSOUNDS:;
#ATTACKS:
;

//---------------dance-single - ----------------
#NOTEDATA:;
#CHARTNAME:;
#STEPSTYPE:dance-single;
#DESCRIPTION:;
#CHARTSTYLE:;
#DIFFICULTY:Hard;
#METER:14;
#RADARVALUES:0.599791,0.899989,0.014129,0.115383,0.142463,1783.000000,1777.000000,6.000000,49.000000,0.000000,0.000000,0.000000,0.000000,0.000000,0.599791,0.899989,0.014129,0.115383,0.142463,1783.000000,1777.000000,6.000000,49.000000,0.000000,0.000000,0.000000,0.000000,0.000000;
#CREDIT:;
#NOTES:
// measure 0
0000
0000
0000
0000
,  // measure 1
0000
0000
0000
0000
,  // measure 2
0000
0000
0000
0000
,  // measure 3
0000
0000
0000
0000
,  // measure 4
0000
0000
0000
0000
,  // measure 5
0000
0000
0000
0000
,  // measure 6
0000
0000
0000
0000
,  // measure 7
0000
0000
0000
0000
,  // measure 8
0000
0000
0000
0000
,  // measure 9
0200
0000
0000
0000
0000
0300
0001
1000
,  // measure 10
0000
0100
0000
0010
0000
0100
0000
0002
,  // measure 11
0000
0000
0000
0000
0000
0003
0010
0100
,  // measure 12
0000
1000
0000
0001
0000
0100
0000
0020
,  // measure 13
0000
0000
0000
0000
0000
0030
0100
1000
,  // measure 14
0000
0100
0000
0010
0000
0001
0000
0020
,  // measure 15
0000
0000
0000
0000
0030
0000
0100
1000
,  // measure 16
0000
0001
0000
0100
0000
0010
0000
0100
,  // measure 17
0001
0000
0010
0000
0100
0000
0001
1000
0100
0000
0010
0000
0100
0000
0001
0000
,  // measure 18
1000
0010
0001
0100
0010
0001
0100
0001
,  // measure 19
0100
0001
0100
0010
0001
1000
0001
0100
,  // measure 20
0010
0001
0100
0001
0100
0010
0001
1000
,  // measure 21
0001
0000
0100
0000
0010
0000
0001
0100
1000
0000
0100
0000
0010
0000
0010
0000
,  // measure 22
0100
0100
0010
0100
0001
0100
0010
0001
,  // measure 23
0100
1000
0100
0010
0100
0001
0100
0001
,  // measure 24
0010
0001
0100
0010
0001
1000
0001
0100
,  // measure 25
0010
0000
0001
0000
0000
0000
0100
0010
,  // measure 26
0001
1000
0001
0100
1000
0000
0001
0000
,  // measure 27
0000
0000
0010
0001
0100
0001
0100
0010
,  // measure 28
0001
1000
0001
0100
1000
0100
0010
0100
,  // measure 29
0001
0000
0100
0000
0000
0000
0010
0001
,  // measure 30
0100
0010
0100
0001
1000
0000
0100
0000
,  // measure 31
0000
0000
0100
0010
0001
0100
0010
0001
,  // measure 32
1000
0001
0100
0010
0001
0100
0001
0100
,  // measure 33
1000
0010
0001
0100
0001
0100
0010
0001
,  // measure 34
0100
0001
0100
0010
0001
0100
0001
0100
,  // measure 35
0010
0001
0100
0001
0010
0100
1000
0100
,  // measure 36
0010
0100
0010
0100
0010
0100
0010
0001
,  // measure 37
1000
0001
0100
0010
0001
0100
0001
0100
,  // measure 38
0010
0001
0100
0001
0010
0100
0010
0100
,  // measure 39
0001
0100
1000
0100
0010
0100
0010
0100
,  // measure 40
0010
0001
0100
0001
0100
0010
0100
1000
,  // measure 41
0100
0000
0100
0010
0100
0001
1000
0001
,  // measure 42
0010
0100
0001
1000
0001
0000
0010
0000
,  // measure 43
0010
0000
0100
0010
0001
0100
0001
0100
,  // measure 44
0010
0001
0100
0001
1000
0000
0100
0000
,  // measure 45
0010
0000
0100
0010
0001
1000
0001
0100
,  // measure 46
0010
0001
0100
0001
0100
0000
0010
0000
,  // measure 47
0100
0000
0010
0001
0100
0001
0100
0010
,  // measure 48
0001
1000
0001
0100
0010
0001
1000
0001
,  // measure 49
0100
0000
0100
0000
0000
0000
0100
0010
,  // measure 50
0001
1000
0001
0100
2000
0000
0000
0000
,  // measure 51
3000
0000
0100
0010
0001
0100
0010
0001
,  // measure 52
1000
0001
0100
0010
0100
0001
1000
0001
,  // measure 53
0010
0000
0100
0000
0000
0000
0001
0100
,  // measure 54
0001
0100
0001
1000
0200
0000
0000
0000
,  // measure 55
0300
0000
0010
0100
0001
1000
0001
0010
,  // measure 56
0100
0010
0100
0010
0001
0000
0100
0000
,  // measure 57
0100
0000
0001
1000
0100
0000
0001
0100
,  // measure 58
0010
0100
0001
0010
0100
0000
1000
0000
,  // measure 59
0010
0000
0100
0010
0100
0001
0100
0010
,  // measure 60
0001
1000
0001
0100
1000
0000
0100
0000
,  // measure 61
0010
0000
0100
0001
0100
1000
0100
0010
,  // measure 62
0100
0001
0010
0100
1000
0000
0100
0000
,  // measure 63
0010
0000
0001
1000
0001
0100
0010
0001
,  // measure 64
0100
0001
0100
1000
0001
0000
0100
0000
,  // measure 65
0020
0000
0000
0000
0030
0000
0100
0001
,  // measure 66
1000
0000
0100
1000
0001
0000
0100
0000
,  // measure 67
0200
0000
0000
0000
0300
0000
0010
0001
,  // measure 68
0100
0000
0100
0001
1000
0000
0100
0000
,  // measure 69
0010
0001
0100
0010
0001
1000
0001
0100
,  // measure 70
0010
0001
0100
0001
1000
0000
0100
0000
,  // measure 71
0001
0100
0010
0001
0100
0001
0100
0010
,  // measure 72
0001
1000
0001
0100
1000
0000
0100
0000
,  // measure 73
0010
0001
0100
0001
0100
0010
0001
1000
,  // measure 74
0001
0100
0001
0010
1000
0000
0100
0000
,  // measure 75
0001
0100
0010
0001
0100
0001
0100
0010
,  // measure 76
0001
0100
0001
0100
1000
0000
0100
0000
,  // measure 77
0100
0010
0100
0010
0001
0100
0001
0100
,  // measure 78
0001
0100
1000
0001
0100
0000
0020
0000
,  // measure 79
0000
0000
0000
0030
,  // measure 80
1000
0001
0100
0010
0001
0000
0100
0000
,  // measure 81
0000
0000
0001
0100
0010
0001
1000
0001
,  // measure 82
0100
0001
0100
0001
0010
0100
0100
0010
,  // measure 83
0100
0001
0100
0010
0001
1000
0001
0100
,  // measure 84
0010
0001
0100
0001
1000
0100
0010
0001
,  // measure 85
1000
0001
0100
0100
0010
0000
0100
0010
,  // measure 86
0001
0100
0001
0100
1000
0010
0001
0100
,  // measure 87
0001
0100
0010
0001
1000
0001
0100
0010
,  // measure 88
0001
0100
0001
0100
1000
0000
0100
0010
,  // measure 89
0100
0001
1001
0000
0000
0000
0100
0010
,  // measure 90
0001
1000
0001
0100
2000
0000
0200
0000
,  // measure 91
0000
0000
0000
3300
,  // measure 92
0100
0001
0100
0001
2000
0000
0002
0000
,  // measure 93
0000
0000
0000
0000
0000
0000
3003
0100
,  // measure 94
0010
0001
0100
0001
2000
0000
0200
0000
,  // measure 95
0000
0000
0000
0000
3300
0000
0100
0001
,  // measure 96
1000
0010
0001
0100
0002
0000
2000
0000
,  // measure 97
0000
0000
3003
0200
,  // measure 98
0300
0020
0030
0002
,  // measure 99
0000
0000
0000
0000
0003
0000
0001
0100
,  // measure 100
0010
0001
0100
0001
2000
0000
0200
0000
,  // measure 101
0000
0000
3300
0020
,  // measure 102
0030
0200
0300
0002
,  // measure 103
0000
0000
0000
0000
0003
0000
0010
0001
,  // measure 104
0100
0001
0100
0001
2000
0000
0000
0000
,  // measure 105
0000
0000
3000
0010
0001
0100
0010
0001
,  // measure 106
1000
0001
0100
0001
1000
0000
0100
0000
,  // measure 107
0010
0001
0010
0001
0100
0001
0100
0001
,  // measure 108
0100
0001
0100
0001
1000
0000
0100
0010
,  // measure 109
0001
1000
0001
0100
0010
0001
0100
0001
,  // measure 110
0100
0001
0100
0001
1000
0000
0100
0010
,  // measure 111
0001
0100
0010
0001
1000
0001
0100
0001
,  // measure 112
0010
0001
0100
0001
2000
0000
0200
0000
,  // measure 113
0000
0000
3300
0020
,  // measure 114
0030
0200
0300
0020
,  // measure 115
0000
0000
0000
0000
,  // measure 116
0000
0000
0000
0000
,  // measure 117
0000
0000
0030
2000
,  // measure 118
3000
0200
0300
0020
,  // measure 119
0000
0000
0000
0000
,  // measure 120
0000
0000
0030
0010
0001
0100
0001
1000
,  // measure 121
0100
0001
1000
0001
0100
0010
0001
0100
,  // measure 122
0001
0100
0010
0001
0100
0001
0100
0010
,  // measure 123
0001
0100
0010
0001
1000
0001
0100
0010
,  // measure 124
0001
0100
0001
0100
0010
0001
0100
0001
,  // measure 125
0100
0010
0001
0100
0001
0100
0010
0001
,  // measure 126
1000
0001
0100
0010
0001
0100
0001
0100
,  // measure 127
0010
0001
1000
0001
0100
0010
0001
0100
,  // measure 128
0001
0100
0010
0100
0001
0100
0001
0100
,  // measure 129
1000
0000
0100
0001
0100
0001
1000
0001
0010
0100
0001
0000
0010
0000
0001
1000
,  // measure 130
0001
0010
0100
0000
0100
0000
0001
1000
0100
0001
0100
0001
0010
0000
0100
0001
,  // measure 131
0010
0000
0100
0001
1000
0001
0100
0001
0010
0000
0100
0010
0100
0000
0010
0100
,  // measure 132
0001
0000
0100
0000
0010
0000
0100
0001
1000
0001
0010
0100
0010
0000
0100
0001
,  // measure 133
1000
0000
0100
0001
0010
0010
0100
0001
0100
0001
0100
0010
0001
1000
0001
0100
,  // measure 134
1000
0000
0100
0000
0001
0000
0010
0100
0001
1000
0001
0010
0100
0000
0001
0010
,  // measure 135
0100
0000
0010
0100
0001
1000
0001
0010
0100
0001
1000
0001
0100
0010
0001
1000
,  // measure 136
0100
0000
0010
0000
0001
0000
0010
0100
0001
1000
0001
0010
0100
0000
0010
0000
,  // measure 137
0000
0000
0010
0100
0001
0100
0010
0001
,  // measure 138
1000
0001
0100
0001
1000
0000
0100
0000
,  // measure 139
0000
0000
0001
0100
0010
0001
1000
0001
,  // measure 140
0100
0001
0100
0001
1000
0000
0100
0000
,  // measure 141
0000
0000
0100
0010
0100
0001
0010
0001
,  // measure 142
0100
0001
0100
0001
1000
0000
0100
0000
,  // measure 143
0000
0000
0100
0010
0100
0001
0100
0001
,  // measure 144
0100
0001
0100
0001
1000
0000
0100
0000
,  // measure 145
0100
0010
0001
1000
0001
0100
0010
0000
,  // measure 146
0001
0100
0001
0100
0001
1000
0100
0000
,  // measure 147
0010
0100
0001
0100
0001
1000
0100
0010
,  // measure 148
0001
0010
0100
0001
1000
0000
0100
0000
,  // measure 149
0100
0010
0001
0100
0001
0010
0100
0001
,  // measure 150
1000
0001
0100
0010
1000
0100
0001
0000
,  // measure 151
0001
0100
0010
0001
0100
0001
0100
0010
,  // measure 152
0001
1000
0001
0100
0001
0000
0100
0000
,  // measure 153
0010
0100
0001
1000
0001
0010
0100
0001
,  // measure 154
0100
0001
0010
0100
0001
1000
0001
0010
,  // measure 155
0100
0001
0100
0001
0100
0010
0100
0001
,  // measure 156
0010
0100
0010
0100
0001
0100
1000
0100
,  // measure 157
0010
0001
0100
0001
0100
0001
0100
0010
,  // measure 158
0001
0100
0001
0100
0010
0001
1000
0001
,  // measure 159
0100
0010
0001
0100
0001
0100
0010
0001
,  // measure 160
0100
0001
0100
0010
0001
1000
0001
0100
,  // measure 161
0010
0001
0100
0001
0100
0010
0001
0100
,  // measure 162
0001
0100
0010
0001
0100
0001
1000
0100
,  // measure 163
0010
0100
0010
0100
0010
0001
0100
0001
,  // measure 164
0100
0010
0001
0100
0001
0100
0010
0001
,  // measure 165
1000
0001
0100
0010
0001
0100
0001
0100
,  // measure 166
0010
0001
0100
0001
0100
0010
0001
1000
,  // measure 167
0001
0100
0010
0001
0100
0001
0100
0001
,  // measure 168
0100
0010
0100
0001
2000
0000
0200
0000
,  // measure 169
0000
0000
3300
0200
,  // measure 170
0300
0020
0030
0200
,  // measure 171
0000
0000
0000
0000
,  // measure 172
0300
0000
0100
0001
1000
0000
0200
0000
,  // measure 173
0000
0000
0300
0200
,  // measure 174
0300
0020
0030
0200
,  // measure 175
0000
0000
0000
0000
0300
0000
0100
0001
,  // measure 176
1000
0100
0001
0010
1000
0100
0001
0010
,  // measure 177
0100
0000
0010
0000
0000
0000
0100
0010
,  // measure 178
0001
1000
0001
0100
2000
0000
0000
0000
,  // measure 179
3000
0000
0001
0100
0010
0001
1000
0001
,  // measure 180
0100
0010
0001
1000
0001
0100
0001
1000
,  // measure 181
0100
0010
0000
0000
,  // measure 182
0001
0100
0001
0100
2000
0000
0000
0000
,  // measure 183
3000
0000
0001
0100
0001
0100
0010
0001
,  // measure 184
1000
0001
0100
0010
0101
0000
0101
0000
,  // measure 185
0010
0000
0100
0000
0001
0000
1000
0100
0001
0000
0010
0100
0001
0000
0100
0000
,  // measure 186
0010
0001
1000
0001
0100
0010
0100
0001
,  // measure 187
1000
0000
0010
0000
0000
0000
0100
0001
0010
0000
0100
0001
1000
0000
0010
0000
,  // measure 188
0100
0001
1000
0001
0010
0100
0001
1000
,  // measure 189
0001
0000
0100
0000
0001
0000
0010
0100
0001
0000
1000
0100
0001
0000
0010
0000
,  // measure 190
0100
0001
1000
0001
0010
0100
0001
1000
,  // measure 191
0001
0000
0010
0000
0001
0000
0100
0010
0100
0000
0010
0001
0100
0000
0100
0000
,  // measure 192
0010
0000
0001
0000
1000
0000
0001
0000
0100
0000
0001
0100
1000
0000
0010
0000
,  // measure 193
0100
0000
0001
0000
0010
0000
0100
0001
1000
0000
0100
0001
0010
0000
0100
0000
,  // measure 194
0010
0100
0001
1000
0001
0010
0001
1000
,  // measure 195
0001
0000
0100
0000
0010
0000
0100
0001
0010
0000
0100
0001
1000
0000
0100
0000
,  // measure 196
0010
0001
1000
0001
0100
0010
0001
0100
,  // measure 197
0001
0000
0010
0000
0100
0000
0100
0010
0100
0000
1000
0001
0100
0000
0001
0000
,  // measure 198
0010
0001
0100
0001
0100
0010
0001
1000
,  // measure 199
0001
0000
0100
0000
0010
0000
1000
0001
0100
0000
0010
0100
0001
0000
0010
0000
,  // measure 200
0001
0100
0010
0001
1000
0001
0100
0010
,  // measure 201
0100
0000
0001
0100
0001
0100
0001
1000
,  // measure 202
0100
0000
0000
0001
0100
0001
0010
0100
,  // measure 203
1000
0000
0001
1000
0001
0100
1000
0000
,  // measure 204
0010
0000
0000
0010
0001
1000
0001
0100
,  // measure 205
1000
0000
0100
0000
0010
0000
0100
0001
,  // measure 206
0000
0001
0000
1000
0000
0010
0100
0020
,  // measure 207
0000
0200
0000
0000
0000
0000
0000
0000
,  // measure 208
0000
0330
0000
0011
0000
1001
0000
0000
,  // measure 209
0001
0100
1000
0000
0001
0100
0010
0000
,  // measure 210
0001
0100
0010
0000
0001
1000
0100
0000
,  // measure 211
0001
0100
0010
0000
0001
0100
1000
0000
,  // measure 212
0001
0100
0010
0000
0001
0100
1000
0000
,  // measure 213
0010
0001
0100
0000
0001
0100
0010
0000
,  // measure 214
0001
0100
1000
0000
0001
0100
0010
0000
,  // measure 215
0001
0100
0010
0000
0001
0100
0010
0000
,  // measure 216
0001
1000
0001
0100
0010
0100
1000
0001
,  // measure 217
0010
0000
0100
0000
0000
0000
0100
0010
,  // measure 218
0001
1000
0001
0100
2000
0000
0000
0000
,  // measure 219
3000
0000
0100
0010
0001
0100
0001
0100
,  // measure 220
0010
0001
1000
0001
0100
0010
0100
0001
,  // measure 221
1000
0000
0100
0000
0000
0000
0100
0010
,  // measure 222
0001
1000
0001
0100
2000
0000
0000
0000
,  // measure 223
3000
0000
0100
0001
0100
0010
0100
0001
,  // measure 224
0100
0001
0100
0010
0001
1000
0001
0100
,  // measure 225
1000
0001
1000
0001
0100
0010
0001
0100
,  // measure 226
0001
0100
0010
0100
0001
0100
0001
0100
,  // measure 227
1000
0010
0001
0100
0001
0100
0010
0001
,  // measure 228
1000
0000
0001
0000
0100
0000
0010
0000
1000
0100
0001
0000
0010
0100
0001
0000
,  // measure 229
0010
0100
0010
0001
0100
0001
0100
0010
,  // measure 230
0001
0000
1000
0000
0001
0000
0100
0000
0100
0001
1000
0000
0100
0000
0010
0000
,  // measure 231
0001
0100
0010
0000
0001
0000
0100
0000
0001
0000
0100
0000
0010
0000
0001
0000
,  // measure 232
0100
0001
0100
0010
0001
1000
0001
0100
,  // measure 233
0010
0000
0001
0000
1000
0000
0001
0000
0100
0000
0010
0000
0100
0010
0100
0001
,  // measure 234
1000
0000
0010
0000
0100
0000
0001
0000
0100
0000
0010
0000
0001
0100
0001
0100
,  // measure 235
1000
0010
0001
0100
0010
0001
0100
0001
,  // measure 236
0100
0000
0010
0000
0001
0000
1000
0000
0001
0000
0100
0000
0010
0000
1000
0100
,  // measure 237
0001
0010
0001
0100
0010
0001
0100
0001
,  // measure 238
0100
0000
0010
0000
0001
0000
0100
0000
0001
0000
0100
0000
0010
0000
1000
0001
,  // measure 239
0100
0000
0001
0000
0100
0000
0010
0000
1000
0010
0100
0001
0100
0000
0010
0000
,  // measure 240
0001
0100
0010
0001
0100
0000
1000
0000
,  // measure 241
0010
0001
0100
1000
0001
0000
0100
0010
,  // measure 242
0001
0100
0001
0100
0001
1000
0100
0000
,  // measure 243
0001
0100
0001
0100
1000
0010
0100
0010
,  // measure 244
0100
0000
0001
0000
1000
0100
0000
0001
0000
0000
0000
0000
0000
0000
0000
0000
,  // measure 245
0100
0010
0001
0100
0001
0100
0010
0001
,  // measure 246
1000
0001
0100
0010
1000
0001
0100
0000
,  // measure 247
0100
0000
0010
0000
0001
0000
1000
0000
0001
0000
0100
0000
0010
0000
1000
0100
,  // measure 248
0001
0000
0010
0000
0100
0001
0000
0010
0000
0000
0000
0000
0000
0000
0000
0000
,  // measure 249
0001
0100
0010
0000
0001
0100
0010
0000
,  // measure 250
0001
1000
0100
0000
0010
0100
0001
0000
,  // measure 251
1000
0100
0001
0000
0010
0100
0001
0000
,  // measure 252
0010
0100
0001
0000
1000
0100
0001
0000
,  // measure 253
0010
0100
0001
0000
1000
0100
0001
0000
,  // measure 254
0010
0100
0001
0000
0010
0100
0001
0000
,  // measure 255
0010
0001
0100
0000
1000
0001
0100
0000
,  // measure 256
0010
0000
0001
0000
0100
0000
0000
0000
0010
0000
0100
0001
1000
0001
0010
0100
,  // measure 257
0001
0000
0100
0001
0010
0100
0001
0100
1000
0000
0100
0001
0010
0000
0100
0001
,  // measure 258
1000
0000
0100
0000
0010
0000
0010
0100
0001
1000
0001
0010
0100
0000
0010
0000
,  // measure 259
0100
0000
0001
1000
0100
0001
0100
0001
0010
0100
0001
1000
0001
0010
0100
0001
,  // measure 260
0010
0000
0100
0001
0010
0000
0100
0001
1000
0001
0010
0100
0001
0000
0100
0000
,  // measure 261
0010
0000
0100
0001
0010
0100
0001
1000
0001
0000
0010
0100
0001
1000
0001
0010
,  // measure 262
0100
0000
0010
0000
0000
0000
0100
0001
1000
0001
0010
0100
0001
0000
0010
0000
,  // measure 263
0010
0000
0100
0001
1000
0001
0010
0100
0010
0000
0001
0100
0010
0001
0100
0001
,  // measure 264
1000
0000
0100
0000
0000
0000
0001
0100
0010
0001
1000
0001
0100
0000
1000
0000
,  // measure 265
0010
0000
0001
0000
1000
0000
0001
0000
0100
0000
0001
0000
0100
0001
0010
0000
,  // measure 266
0001
0000
1000
0000
0001
0000
0100
0000
0010
0000
0100
0000
0001
0100
0001
1000
,  // measure 267
0100
0001
1000
0001
0100
0010
0010
0001
,  // measure 268
0100
0000
0001
0000
0100
0000
1000
0000
0001
0000
0010
0000
0100
0000
0010
0100
,  // measure 269
0001
0010
0100
0010
0001
1000
0001
0100
,  // measure 270
0001
0000
0010
0000
0100
0000
0001
0000
0100
0000
0010
0000
0100
0000
0001
1000
,  // measure 271
0100
0010
0100
0001
0100
0010
0001
1000
,  // measure 272
0001
0100
0010
0001
1000
0001
0100
0010
,  // measure 273
1001
0000
0000
0000
;
