#VERSION:0.83;
#TITLE:so bad;
#SUBTITLE:;
#ARTIST:Fawn Burke;
#TITLETRANSLIT:;
#SUBTITLETRANSLIT:;
#ARTISTTRANSLIT:;
#GENRE:;
#ORIGIN:;
#CREDIT:;
#BANNER:;
#BACKGROUND:;
#PREVIEWVID:;
#JACKET:;
#CDIMAGE:;
#DISCIMAGE:;
#LYRICSPATH:;
#CDTITLE:;
#MUSIC:so bad.ogg;
#OFFSET:0.000000;
#SAMPLESTART:100.059883;
#SAMPLELENGTH:12.000000;
#SELECTABLE:YES;
#BPMS:0.000=140.000;
#STOPS:;
#DELAYS:;
#WARPS:;
#TIMESIGNATURES:0.000=4=4;
#TICKCOUNTS:0.000=4;
#COMBOS:0.000=1;
#SPEEDS:0.000=1.000=0.000=0;
#SCROLLS:0.000=1.000;
#FAKES:;
#LABELS:0.000=Song Start;
#BGCHANGES:;
#KEYSOUNDS:;
#ATTACKS:
;

//---------------dance-single - ----------------
#NOTEDATA:;
#CHARTNAME:;
#STEPSTYPE:dance-single;
#DESCRIPTION:;
#CHARTSTYLE:;
#DIFFICULTY:Hard;
#METER:12;
#RADARVALUES:0.456520,0.797066,0.118084,0.103323,0.258308,433.000000,417.000000,16.000000,14.000000,0.000000,0.000000,0.000000,0.000000,0.000000,0.456520,0.797066,0.118084,0.103323,0.258308,433.000000,417.000000,16.000000,14.000000,0.000000,0.000000,0.000000,0.000000,0.000000;
#CREDIT:;
#NOTES:
// measure 0
0000
0000
0000
0000
,  // measure 1
0000
0000
0000
0000
,  // measure 2
0000
0000
0000
0000
,  // measure 3
0000
0000
0000
0000
,  // measure 4
0001
0010
0100
0001
0010
0001
0100
0010
,  // measure 5
0001
0100
0010
0100
1000
0001
0100
0010
,  // measure 6
0100
0010
0001
1000
0001
0100
0001
0100
,  // measure 7
0001
0000
1000
0000
0000
0000
0100
0000
0000
0000
0010
0000
1000
0100
0001
0100
,  // measure 8
0001
0000
0100
0000
0010
0000
0010
0002
,  // measure 9
0000
0000
0003
0010
,  // measure 10
0200
0000
0000
0000
0000
0000
0300
1000
,  // measure 11
0000
0200
0000
0000
0000
0300
0010
0000
,  // measure 12
0100
0000
0000
0000
0100
0000
0001
0200
,  // measure 13
0000
0000
0000
0000
0000
0000
0300
0100
,  // measure 14
0000
0002
0000
0000
0000
0000
0000
0000
,  // measure 15
0000
0003
0000
0001
1000
0100
0000
0000
,  // measure 16
0100
0010
0001
1000
0001
0000
0001
0000
,  // measure 17
1000
0000
0001
0100
0001
1000
0001
0000
,  // measure 18
0100
0100
0001
1000
,  // measure 19
0100
0000
0100
0010
0100
0100
1000
0000
,  // measure 20
0101
0000
0110
0000
1000
0100
0001
0000
,  // measure 21
0101
0000
0010
0100
0001
1000
0001
0000
,  // measure 22
0101
0101
0101
0000
0001
0100
1000
0000
,  // measure 23
0220
0000
0000
0000
0330
0000
0000
0000
0001
0000
1000
0000
0100
0010
0100
0001
,  // measure 24
0010
0000
0000
0000
0000
0000
0000
0000
0000
0001
1000
0000
0000
0000
0000
0000
,  // measure 25
0010
0000
0100
0000
0100
0001
1000
0000
,  // measure 26
0100
0000
0000
0000
0010
0000
0000
0000
0010
0100
0000
0000
0001
1000
0100
0001
,  // measure 27
0100
0000
0100
0100
0100
0001
0010
0000
,  // measure 28
0100
0010
0101
0101
,  // measure 29
0100
0000
0010
0000
1000
0001
0100
0000
,  // measure 30
0010
0000
0000
0000
0100
0001
0000
0000
0100
0001
0000
0000
1000
0100
0001
0000
,  // measure 31
0100
0000
0000
0010
0000
0000
0000
0000
0000
0100
0100
0100
,  // measure 32
0100
0000
0010
0100
0001
1000
0001
1000
,  // measure 33
0000
0100
0000
0001
0000
0010
0000
0001
,  // measure 34
0000
0100
0000
1000
0000
0001
0000
0200
,  // measure 35
0000
0000
0000
0000
,  // measure 36
0010
0000
0310
0001
0000
0010
0000
0100
,  // measure 37
0000
0010
0000
0100
0001
1000
0100
0001
,  // measure 38
0000
1000
0000
0020
0000
0000
0000
0030
,  // measure 39
0000
0000
0001
0100
2000
0000
0000
0000
,  // measure 40
0000
0000
0000
0000
,  // measure 41
3000
0000
0100
0100
0001
1000
0000
0100
,  // measure 42
0010
0000
0100
0001
1000
0001
0010
0000
,  // measure 43
0011
0000
0100
0001
1000
0001
0010
0001
,  // measure 44
0101
0000
0000
0000
0100
0001
1000
0000
,  // measure 45
0101
0000
0000
0000
0100
0000
0010
0000
0001
0100
0010
0000
1000
0000
0000
0000
,  // measure 46
0101
0000
0110
0000
1000
0100
0001
0000
,  // measure 47
1001
0000
0001
1000
0001
0100
1000
0000
,  // measure 48
0202
0000
0303
0000
0100
0001
1000
0000
,  // measure 49
0010
0000
0001
0000
1000
0000
0001
0000
0100
0000
0010
0000
1000
0010
0100
0001
,  // measure 50
1000
0100
0001
1000
0001
0000
0010
0000
0200
0000
0000
0000
0300
0000
0000
0000
,  // measure 51
1000
0100
0001
1000
0001
0010
0100
0000
0010
0000
0100
0000
0001
0000
0000
0000
,  // measure 52
1000
0100
0001
0100
0001
0000
0010
0000
0100
0010
0001
0000
1000
0100
0001
0000
,  // measure 53
0001
0100
1000
0000
0100
0001
0010
0000
,  // measure 54
0001
1000
0001
0100
0010
0100
0001
0000
0100
0000
0000
0000
1000
0000
0000
0000
,  // measure 55
0001
0100
0001
1000
0001
0010
0100
0000
0001
0000
0100
0000
1000
0000
0100
0001
,  // measure 56
0100
0010
0001
1000
0001
0100
0010
0001
,  // measure 57
1000
0000
0000
0100
0000
0000
0001
0000
0000
0000
0000
0000
0010
0000
0000
0100
0000
0000
0001
0000
0000
0000
0000
0000
1000
0000
0000
0000
0000
0000
0100
0000
0000
0000
0000
0000
0001
0000
0000
0000
0001
0000
0000
0000
0001
0000
0000
0000
,  // measure 58
0001
0000
0000
0100
0000
0000
0001
0000
0000
0000
0000
0000
0000
0000
0000
0000
,  // measure 59
0001
0000
0000
0100
0000
0000
0010
0000
0000
0000
0000
0000
1000
0100
0001
0100
,  // measure 60
0001
0000
0000
0100
0000
0000
0010
0000
0000
0000
0100
1000
0000
0000
0000
0000
,  // measure 61
0100
0000
0000
0010
0000
0000
0001
0000
2000
0000
0000
0000
3000
0000
0000
0000
,  // measure 62
1000
0100
0001
1000
0001
0010
0100
0000
0000
0000
0000
0000
0000
0000
0000
0000
,  // measure 63
0100
0010
0001
0100
0001
1000
0100
0000
0000
0000
0000
0000
0100
0001
1000
0001
,  // measure 64
0010
0100
0001
1000
0001
0010
0100
0000
0000
0000
0100
1000
0000
0000
0000
0000
,  // measure 65
0010
0000
0001
0000
1000
0000
0001
0000
0100
0000
0010
0000
0001
0100
1000
0100
,  // measure 66
0001
1000
0001
0010
0100
0001
0100
0000
0001
0100
0001
0100
0001
0100
0001
0100
,  // measure 67
1000
0000
0100
0001
0010
0000
0100
0001
1000
0100
0001
0100
0001
1000
0001
0010
,  // measure 68
0100
0000
0001
0010
1000
0000
0100
0010
,  // measure 69
0001
1000
0001
0100
0010
0001
1000
0001
,  // measure 70
0100
0010
0001
1000
0001
0100
1000
0010
,  // measure 71
0100
0010
0001
0100
0001
0100
0001
0100
,  // measure 72
1000
0000
0000
0000
;
