#TITLE:silent treatment;
#SUBTITLE:;
#ARTIST:Freya Skye;
#TITLETRANSLIT:;
#SUBTITLETRANSLIT:;
#ARTISTTRANSLIT:;
#GENRE:;
#CREDIT:;
#BANNER:;
#BACKGROUND:;
#LYRICSPATH:;
#CDTITLE:;
#MUSIC:silent treatment.ogg;
#OFFSET:0.000000;
#SAMPLESTART:100.059883;
#SAMPLELENGTH:12.000000;
#SELECTABLE:YES;
#BPMS:0.000000=112.000000
;
#STOPS:0.000000=0.250000
;
#BGCHANGES:;
#KEYSOUNDS:;
#ATTACKS:;

//---------------dance-single - ----------------
#NOTES:
     dance-single:
     :
     Hard:
     12:
     0.436374,0.509044,0.000000,0.028153,0.278012,434.000000,434.000000,0.000000,4.000000,0.000000,0.000000,0.436374,0.509044,0.000000,0.028153,0.278012,434.000000,434.000000,0.000000,4.000000,0.000000,0.000000:
// measure 0
0000
0000
0000
0000
,  // measure 1
0000
0000
0000
0000
,  // measure 2
0000
0000
0000
0000
,  // measure 3
0000
0000
0000
0000
,  // measure 4
1000
0000
0100
0000
0001
0000
0010
0100
0000
0001
0000
0010
0100
0001
1000
0000
,  // measure 5
0001
0000
0000
0000
1000
0000
0100
0001
0000
0100
0001
1000
0001
0010
0100
0000
,  // measure 6
0010
0000
0000
0100
0000
0001
0010
0100
0001
0000
0100
0000
1000
0000
0100
0000
,  // measure 7
0000
0000
0001
0100
0000
0000
0000
0000
,  // measure 8
0010
0001
1000
0100
0000
0100
0010
0000
,  // measure 9
0100
0001
0100
1000
0000
0001
0100
0010
,  // measure 10
0001
0100
0001
0100
0000
0001
1000
0100
,  // measure 11
0020
0000
0000
0000
0000
0000
0000
0000
0030
0000
0100
0000
0001
0010
0000
0000
,  // measure 12
0100
0000
0001
1000
0100
0000
0001
0000
0010
0100
0001
0000
0010
0000
0100
0001
,  // measure 13
0010
0001
0100
0010
0001
1000
0001
0100
,  // measure 14
1000
0100
0010
0001
1000
0001
0100
0010
,  // measure 15
0001
1000
0001
0100
1000
0000
0000
0001
,  // measure 16
0100
0000
0010
0100
0001
0000
1000
0000
0100
0001
0010
0000
0100
0000
0001
0010
,  // measure 17
0100
0001
0100
0010
0001
1000
0001
0100
,  // measure 18
1000
0000
0001
0100
0010
0001
1000
0001
,  // measure 19
0100
0001
0100
1000
0100
0000
0000
0000
,  // measure 20
0000
0000
0100
0000
0001
1000
0000
0100
0000
0000
0010
0100
0001
1000
0100
0000
,  // measure 21
0010
0000
0100
0001
1000
0100
0000
0001
0000
0000
0001
1000
0001
0100
1000
0000
,  // measure 22
0100
0000
0000
0010
0001
0100
0000
1000
0000
0001
0000
0100
0010
0000
0100
0000
,  // measure 23
0000
0100
0000
0010
0000
0001
0100
0010
,  // measure 24
0100
0000
0000
0000
0010
0000
0100
0001
0000
1000
0100
0000
0001
0000
0010
0000
,  // measure 25
0100
0000
0000
0000
0010
0100
0000
0001
0000
1000
0100
0001
0100
0000
0001
0000
,  // measure 26
0010
0000
0000
0000
0100
0000
0001
1000
0000
0100
0001
0000
0100
0000
0000
0000
,  // measure 27
1000
0000
0000
0100
0001
1000
0001
0000
,  // measure 28
0100
0001
0100
1000
0000
0010
0100
0000
,  // measure 29
0001
0100
0001
1000
0000
0001
0100
0000
,  // measure 30
0010
0100
0001
1000
0000
0100
0001
1000
,  // measure 31
0200
0000
0000
0000
0000
0000
0000
0000
0300
0000
0001
0000
1000
0100
0000
0000
,  // measure 32
0010
0000
0001
0100
1000
0000
0010
0000
0100
0001
1000
0000
0100
0000
0001
0010
,  // measure 33
0100
0010
0001
0100
0010
0001
1000
0001
,  // measure 34
0100
0010
0001
1000
0001
0100
1000
0010
,  // measure 35
0001
1000
0001
0100
1000
0000
0000
0100
,  // measure 36
0001
0000
1000
0100
0001
0000
0010
0000
0100
0001
1000
0000
0100
0000
0001
0010
,  // measure 37
0100
0010
0001
1000
0001
0100
0001
0100
,  // measure 38
0100
0000
0010
0001
1000
0001
0100
0010
,  // measure 39
0001
1000
0001
0100
1000
0000
0000
0000
,  // measure 40
0100
0000
0000
0000
0001
0000
1000
0100
0000
0001
0010
0000
0100
0000
0001
1000
,  // measure 41
0000
0100
0001
0000
0100
0000
0010
0100
0000
0001
1000
0000
0010
0000
0000
0100
,  // measure 42
0000
0000
0000
0000
0001
0000
1000
0100
0000
0010
0100
0000
0001
0000
1000
0100
,  // measure 43
0000
0010
0001
0000
0100
0000
1000
0001
0000
0100
0010
0000
0100
0000
0000
0001
,  // measure 44
0000
0000
0000
0000
0010
0000
0001
0100
0000
1000
0100
0000
0001
0000
0010
0100
,  // measure 45
0000
0001
1000
0000
0100
0000
1000
0001
0000
0100
0010
0000
0001
0000
0000
1000
,  // measure 46
0000
0000
0000
0000
0001
0000
0000
0100
0000
0000
0001
0000
0100
0000
0001
0000
,  // measure 47
0001
0000
0000
0000
0000
0000
0100
0000
0000
0000
0010
0000
0100
0001
0000
0000
,  // measure 48
0010
0000
0100
0001
0100
0000
1000
0000
0100
0001
0010
0000
0100
0000
0001
1000
,  // measure 49
0100
0100
0010
0001
0100
0001
0100
1000
,  // measure 50
0100
0000
0001
1000
0100
0000
0001
0000
0100
0000
0001
0000
0100
0000
0010
0000
,  // measure 51
0001
0000
1000
0000
0001
0000
0100
0000
1000
0000
0000
0000
0100
0001
1000
0100
,  // measure 52
0001
0000
0010
0100
0001
0000
1000
0000
0100
0001
0010
0000
0100
0000
0001
1000
,  // measure 53
0100
0001
0100
0010
0001
1000
0001
0100
,  // measure 54
1000
0100
0010
0001
1000
0001
0100
0010
,  // measure 55
0001
1000
0001
0100
2000
0000
0000
0000
,  // measure 56
3000
0100
0000
0010
0000
0001
0000
0100
,  // measure 57
0000
1000
0000
0001
0000
0100
0000
0010
,  // measure 58
0000
0001
0000
0100
0000
1000
0000
0000
,  // measure 59
0100
0001
1000
0100
0000
0001
0100
1000
,  // measure 60
0000
0001
0000
0100
0000
0010
0000
0001
,  // measure 61
0000
0100
0000
0010
0000
0001
0000
0100
,  // measure 62
0000
1000
0000
0001
0000
0100
0000
0010
,  // measure 63
0001
1000
0001
0200
0000
0000
0000
0000
,  // measure 64
0000
0000
0000
0000
,  // measure 65
0000
0000
0000
0300
;
