#TITLE:shutting up;
#SUBTITLE:;
#ARTIST:Dorian Electra;
#TITLETRANSLIT:;
#SUBTITLETRANSLIT:;
#ARTISTTRANSLIT:;
#GENRE:;
#CREDIT:;
#BANNER:;
#BACKGROUND:;
#LYRICSPATH:;
#CDTITLE:;
#MUSIC:Dorian Electra - Shutting Up (Official Music Video).ogg;
#OFFSET:0.000000;
#SAMPLESTART:100.059883;
#SAMPLELENGTH:12.000000;
#SELECTABLE:YES;
#BPMS:0.000000=144.000000
;
#STOPS:0.000000=0.150000
;
#BGCHANGES:0.000=Dorian Electra - Shutting Up (Official Music Video).mp4=1.000=0=0=1=====,
99999=-nosongbg-=1.000=0=0=0 // don't automatically add -songbackground-
;
#KEYSOUNDS:;
#ATTACKS:;

//---------------dance-single - ----------------
#NOTES:
     dance-single:
     :
     Hard:
     14:
     0.655085,0.711046,0.000000,0.018565,0.148521,741.000000,741.000000,0.000000,3.000000,0.000000,0.000000,0.655085,0.711046,0.000000,0.018565,0.148521,741.000000,741.000000,0.000000,3.000000,0.000000,0.000000:
// measure 0
0000
0000
0000
0000
,  // measure 1
0000
0000
0000
0000
,  // measure 2
0000
0000
0000
0000
,  // measure 3
0000
0000
0000
0000
,  // measure 4
0100
0010
0100
0001
0100
0001
0100
0010
,  // measure 5
0001
0100
0001
0100
0010
0100
1000
0100
,  // measure 6
0010
0001
0100
0001
0100
0010
0001
0100
,  // measure 7
0001
0100
0010
0001
1000
0001
0100
0010
,  // measure 8
0100
0010
0001
0100
0010
0001
0100
0001
,  // measure 9
0100
0010
0001
1000
0001
0100
0010
0001
,  // measure 10
0100
0001
0100
0010
0001
0100
0001
0100
,  // measure 11
0010
0001
1000
0001
0100
0010
0001
0100
,  // measure 12
0001
0100
0010
0001
1000
0001
0100
0010
,  // measure 13
0001
0100
0001
0100
0010
0001
1000
0001
,  // measure 14
0100
0010
0001
0100
0001
0100
0010
0001
,  // measure 15
1000
0001
0100
0010
0001
0100
0001
0100
,  // measure 16
1000
0100
0010
0010
1000
1000
0100
0001
,  // measure 17
0100
0010
0100
0010
0100
0001
0100
0010
,  // measure 18
0001
0100
0001
0100
0010
0001
1000
0001
,  // measure 19
0100
0010
0001
0100
0001
0100
0010
0001
,  // measure 20
1000
0001
0100
0010
0001
0100
0001
0100
,  // measure 21
0010
0001
1000
0001
0100
0010
0001
0100
,  // measure 22
0001
0100
0010
0001
1000
0001
0100
0010
,  // measure 23
0200
0000
0000
0000
0300
0001
1000
0100
,  // measure 24
0010
0001
0100
0010
0001
0100
0001
0100
,  // measure 25
1000
0000
0100
0000
0001
0000
0100
0000
0001
0010
1000
0000
0001
0000
0010
0000
,  // measure 26
0100
0010
0001
0100
0010
0001
0100
0001
,  // measure 27
0100
0010
0001
0100
0010
0001
1000
0001
,  // measure 28
0100
0000
0010
0000
0001
0000
0100
0010
0001
0000
0100
0000
0010
0000
0100
0000
,  // measure 29
0001
0100
0010
0100
1000
0100
0010
0001
,  // measure 30
0100
0001
0100
0010
0100
0001
0100
0010
,  // measure 31
0001
1000
0001
0100
0001
0010
0100
0010
,  // measure 32
0100
0010
0001
0100
0001
0100
1000
0010
,  // measure 33
0100
0010
0100
0001
0100
0010
1000
0010
,  // measure 34
0100
0010
0001
0100
0001
0100
0010
0001
,  // measure 35
0100
0001
0100
0010
0001
0100
0001
1000
,  // measure 36
0100
0010
0100
1000
0100
0001
0100
0001
,  // measure 37
0010
0100
0001
1000
0001
0010
0100
0001
,  // measure 38
0010
0010
0100
0001
0100
0010
0001
0100
,  // measure 39
0001
0000
0100
0000
0010
0000
0001
0000
0100
0000
0001
0000
0100
0000
0010
0100
,  // measure 40
0001
1000
0001
0100
0010
0001
0100
0001
,  // measure 41
0100
0010
0001
1000
0001
0100
0010
0001
,  // measure 42
0100
0001
0100
0010
0001
0100
0001
0100
,  // measure 43
1000
0010
0100
0001
1000
0001
0100
0010
,  // measure 44
0001
0100
0001
0100
0010
0001
0100
0001
,  // measure 45
0100
0010
0001
1000
0001
0100
0010
0001
,  // measure 46
0100
0001
0100
0001
1000
0000
0100
0100
,  // measure 47
0010
0001
1000
0001
0200
0000
0300
0000
,  // measure 48
0010
0100
0001
1000
0001
0010
0100
0001
,  // measure 49
0100
0000
0001
0000
0010
0000
0100
0000
0001
0100
1000
0000
0001
0000
0010
0000
,  // measure 50
0001
0010
0100
0001
1000
0001
0100
0010
,  // measure 51
0001
0000
0100
0000
0001
0010
0100
0001
0010
0000
1000
0000
0010
0000
0100
0001
,  // measure 52
0010
0000
0100
0000
0010
0000
0100
0010
0100
0000
1000
0000
0100
0000
0010
0000
,  // measure 53
0100
0000
0010
0000
0010
0000
0100
0001
0010
0000
0010
0000
0100
0000
0001
0000
,  // measure 54
0100
0000
0010
0000
0100
0010
1000
0001
0100
0000
0010
0000
0001
0000
0100
0000
,  // measure 55
0001
0100
0010
0001
0100
0001
0100
0010
,  // measure 56
0001
0000
1000
0000
0001
0010
0100
0000
0010
0000
0001
0000
0100
0010
0001
0000
,  // measure 57
0100
0000
0010
0000
0001
0100
1000
0000
0001
0000
0100
0000
0010
0000
0001
0000
,  // measure 58
0100
0001
0100
0010
0100
1000
0001
0100
,  // measure 59
0010
0000
0001
0000
0100
0000
0001
0000
0100
0000
0010
0000
0001
0000
0100
0010
,  // measure 60
0001
0000
0100
0000
0010
0100
0001
0000
1000
0000
0001
0000
0100
0001
0010
0000
,  // measure 61
0001
0000
0100
0000
0001
0010
0100
0001
0010
0000
0001
0000
0100
0010
0001
0000
,  // measure 62
0100
0000
0010
0000
0001
0100
1000
0000
0001
0000
0100
0000
0010
0100
0001
0000
,  // measure 63
0100
0000
0001
0010
0100
0001
0010
0100
0001
0010
1000
0000
0001
0010
0100
0000
,  // measure 64
0010
0000
0000
0100
0000
0001
0000
1000
,  // measure 65
0000
0100
0001
0000
0100
0000
0010
0000
,  // measure 66
0100
0001
0000
0010
0100
0000
0000
0000
,  // measure 67
0001
0100
0000
0010
0001
0000
0200
0000
,  // measure 68
0310
0000
0001
0010
0000
0100
0001
0000
,  // measure 69
0100
0000
0001
0010
0000
0100
0001
0000
,  // measure 70
0100
0010
0000
0001
0100
0000
0000
0000
,  // measure 71
0010
0001
0000
0100
0010
0000
1000
0100
,  // measure 72
0001
0000
0010
0000
0000
0010
0100
0000
0010
0000
0100
0000
0001
0000
0000
0000
,  // measure 73
0010
0000
0001
0000
0100
0001
0010
0000
0001
0000
1000
0000
0001
0000
0100
0000
,  // measure 74
1000
0000
0100
0000
0010
0100
0001
0000
0100
0000
0000
0000
0000
0000
0000
0000
,  // measure 75
0000
0000
0000
0000
0100
0001
0010
0000
0010
0000
0001
0000
1000
0000
0001
0000
,  // measure 76
0100
0000
0010
0000
0100
0001
0010
0000
0010
0000
0001
0000
1000
0000
0001
0000
,  // measure 77
0100
0000
0100
0000
0010
0100
0001
0000
0010
0000
0100
0000
0010
0000
0001
0000
,  // measure 78
0100
0000
0001
0000
0100
0010
0001
0000
0010
0001
0100
0000
0010
0000
0100
0000
,  // measure 79
0100
0000
0010
0000
1000
0100
0001
0100
0001
0000
0010
0000
0100
0000
0001
0000
,  // measure 80
0010
0100
0001
0100
0010
0001
1000
0001
,  // measure 81
0100
0000
0010
0000
0001
0100
0010
0001
0100
0100
0010
0000
0010
0000
0001
0000
,  // measure 82
0100
0001
0100
0010
0001
1000
0001
0100
,  // measure 83
0010
0000
0001
0000
0100
0010
0001
0100
0100
0000
0010
0000
0001
0000
1000
0000
,  // measure 84
0001
0000
0100
0000
0010
0000
0100
0001
0010
0000
0010
0000
0001
0000
0100
0000
,  // measure 85
0001
0000
0100
0000
0010
0000
1000
0001
0100
0000
0010
0000
0100
0000
0001
0000
,  // measure 86
0100
0000
0010
0000
1000
0100
0001
0100
0001
0000
0010
0000
0001
0000
0100
0000
,  // measure 87
0010
0000
0001
0000
1000
0000
0001
0010
0100
0000
0010
0000
0001
0000
0100
0000
,  // measure 88
0001
0100
0010
0100
1000
0100
0010
0001
,  // measure 89
0100
0000
0001
0000
0010
0000
0100
0000
1000
0010
0100
0000
0010
0000
0001
0000
,  // measure 90
0100
0001
0100
0010
0001
0100
0001
0100
,  // measure 91
0010
0001
1000
0001
0100
0010
0001
0100
,  // measure 92
0001
0100
0010
0001
1000
0001
0100
0010
,  // measure 93
0001
0100
0001
0100
0010
0001
1000
0001
,  // measure 94
0100
0010
0001
0100
0001
0100
0010
0100
,  // measure 95
0001
0100
0010
0001
0100
0001
0100
0000
;
