#TITLE:shinjuku;
#SUBTITLE:;
#ARTIST:Franky Rizardo;
#TITLETRANSLIT:;
#SUBTITLETRANSLIT:;
#ARTISTTRANSLIT:;
#GENRE:;
#CREDIT:;
#BANNER:;
#BACKGROUND:;
#LYRICSPATH:;
#CDTITLE:;
#MUSIC:Franky Rizardo - Shinjuku.ogg;
#OFFSET:0.000000;
#SAMPLESTART:100.059883;
#SAMPLELENGTH:12.000000;
#SELECTABLE:YES;
#BPMS:0.000000=129.000000
;
#STOPS:0.000000=0.500000
;
#BGCHANGES:;
#KEYSOUNDS:;
#ATTACKS:;

//---------------dance-single - ----------------
#NOTES:
     dance-single:
     :
     Hard:
     14:
     0.544156,0.766989,0.023807,0.000000,0.449354,640.000000,636.000000,4.000000,0.000000,0.000000,0.000000,0.544156,0.766989,0.023807,0.000000,0.449354,640.000000,636.000000,4.000000,0.000000,0.000000,0.000000:
// measure 0
0000
0000
0000
0000
,  // measure 1
0000
0000
0000
0000
,  // measure 2
0000
0000
0000
0000
,  // measure 3
0000
0000
0000
0000
,  // measure 4
0000
0000
0000
0000
,  // measure 5
0100
0000
0000
0010
0000
0000
0100
0000
0000
0010
0000
0000
0000
0000
0000
0000
,  // measure 6
0000
0000
0000
0000
,  // measure 7
0100
0000
0000
0010
0000
0000
0001
0000
0000
0100
0000
0000
0000
0000
0000
0000
,  // measure 8
0000
0000
0000
0000
,  // measure 9
0001
0000
0000
0100
0000
0000
0010
0000
0001
0000
1000
0000
0001
0000
0100
0000
,  // measure 10
0010
0000
0000
0000
0100
0000
0010
0100
0000
0000
0001
0000
0000
0000
0000
0000
,  // measure 11
0100
0000
0000
0010
0000
0000
0001
0000
1000
0000
0001
0000
0100
0000
0010
0000
,  // measure 12
0100
0000
0000
0000
0100
0000
0010
0001
0000
0000
0000
0000
0000
0000
0000
0000
,  // measure 13
0100
0000
0000
0010
0000
0000
0001
0000
1000
0000
0001
0000
0100
0000
0010
0000
,  // measure 14
0001
0000
0000
0000
0100
0000
0010
0001
0000
0000
0100
0000
0010
0000
0001
0000
,  // measure 15
0100
0000
0000
0010
0000
0000
1000
0000
0001
0000
0100
0000
0010
0000
0001
0000
,  // measure 16
0100
0000
0000
0000
0010
0000
0100
0001
0000
0000
0010
0000
0001
0000
0100
0000
,  // measure 17
0010
0000
0000
0100
0000
0000
0001
0000
0000
0010
0000
0000
0100
0000
0000
0001
,  // measure 18
0000
0000
0100
0000
0000
0010
0000
0000
0100
0000
0000
0001
0000
0000
0010
0000
,  // measure 19
0100
0000
0000
0001
0000
0000
0010
0000
0000
0100
0000
0000
0001
0000
0000
0010
,  // measure 20
0100
0001
0100
0000
0000
0010
0100
0001
0000
0000
0000
0000
1000
0000
0100
0000
,  // measure 21
1000
0100
0010
0001
0100
0010
0001
0100
,  // measure 22
0001
0000
0100
0000
0010
0000
0001
0100
1000
0000
0100
0000
0010
0000
0100
0000
,  // measure 23
0010
0001
0100
0001
0100
0010
0001
0100
,  // measure 24
0001
0000
0100
0000
0010
0000
0001
1000
0100
0000
0010
0000
0100
0000
0010
0000
,  // measure 25
0001
0100
0001
0100
0010
0100
0001
0100
,  // measure 26
1000
0000
0010
0000
0100
0000
0001
0010
0100
0000
0001
0000
1000
0000
0100
0000
,  // measure 27
0001
0000
0000
0100
0000
0000
0010
0000
0000
0100
0000
0000
0000
0000
0000
0000
,  // measure 28
0010
0000
0000
0000
0100
0000
0001
1000
0000
0000
0000
0000
0000
0000
0000
0000
,  // measure 29
0010
0001
0100
0001
0100
0010
0001
0100
,  // measure 30
0001
0000
0100
0000
0010
0000
1000
0100
0001
0000
0100
0000
0010
0000
0100
0000
,  // measure 31
0010
0001
0100
0001
0100
0010
0001
0100
,  // measure 32
0001
0000
0100
0000
0010
0000
0001
0100
1000
0000
0010
0000
0001
0000
0100
0000
,  // measure 33
0010
0001
0100
0001
0100
0010
0001
0100
,  // measure 34
0001
0000
0100
0000
0010
0000
0001
0100
1000
0000
0001
0000
0100
0000
0010
0000
,  // measure 35
0001
0100
0010
0001
0100
0001
0100
0010
,  // measure 36
1000
0100
0001
0000
0010
0000
0100
0001
0010
0000
0100
0000
0001
0010
1000
0000
,  // measure 37
0100
0010
0000
0001
,  // measure 38
0000
0100
0000
1000
,  // measure 39
0000
0001
0000
0100
,  // measure 40
0000
0010
0000
0001
,  // measure 41
0000
0100
0000
0010
,  // measure 42
0000
0100
0000
0001
,  // measure 43
0000
1000
0000
0100
,  // measure 44
0100
0001
0000
0010
0000
0000
0010
0001
0000
0100
0000
0000
0000
0000
0000
0000
,  // measure 45
0100
0000
0000
0001
0000
0000
0010
0100
0001
0000
0000
0010
0000
0000
0001
1000
,  // measure 46
0100
0000
0000
0010
0000
0000
1000
0000
0100
0000
0010
0000
0100
0001
1000
0001
,  // measure 47
0010
0000
0000
0010
0000
0000
1000
0001
0100
0000
0000
0010
0000
0000
0001
1000
,  // measure 48
0100
0000
0000
0100
0000
0000
0010
0000
0100
0000
0010
0000
0001
0100
0001
1000
,  // measure 49
0100
0000
0001
0010
0000
0010
1000
0100
0001
0010
0000
0001
0000
0000
0001
0100
,  // measure 50
1000
0000
0000
0010
0000
0000
0001
0000
0100
0000
0010
0000
0001
0100
1000
0100
,  // measure 51
0001
0000
0010
0100
0000
0000
0001
0010
0100
0001
0000
1000
0000
0000
0100
0001
,  // measure 52
0010
0100
0000
0001
0000
0000
0100
0001
0010
0100
0001
0000
0100
0010
0001
0100
,  // measure 53
1000
0000
0010
0100
0000
0001
1000
0100
0001
0010
0000
0100
0000
0000
0010
0100
,  // measure 54
0001
0000
0000
0100
0000
0000
0010
0000
0100
0000
0001
0000
1000
0100
0001
0010
,  // measure 55
1000
0000
0010
0100
0000
0010
0001
0100
1000
0100
0000
0010
0000
0000
0100
0001
,  // measure 56
0010
0100
0000
0001
0000
0000
0010
0100
0010
0001
0100
0000
0001
1000
0100
0001
,  // measure 57
0010
0000
0000
0100
0000
0000
0010
0000
0001
0000
0100
0000
0001
0000
0100
0000
,  // measure 58
1000
0000
0000
0000
0001
0000
0100
0010
0000
0000
0001
0000
0101
0000
0000
0000
,  // measure 59
1000
0000
0000
0100
0000
0000
0001
0000
0010
0000
0100
0000
0001
0000
1000
0000
,  // measure 60
0100
0010
0000
0100
0001
0100
0010
0100
0000
0001
0000
0010
0100
0000
0000
0000
,  // measure 61
1000
0000
0000
0100
0000
0000
0001
0000
0010
0000
0100
0000
0001
0000
1000
0000
,  // measure 62
0100
0000
0000
0000
0010
0000
0100
0001
0000
0000
0010
0000
0100
0000
0001
0000
,  // measure 63
1001
0000
0000
0100
0000
0000
0010
0000
1001
0000
0010
0000
0100
0000
0010
0000
,  // measure 64
1000
0001
0000
0001
0010
0100
0001
0010
1000
0100
0000
0000
1001
0000
0010
0000
,  // measure 65
0100
0001
0100
0010
0001
0100
0001
0100
,  // measure 66
1000
0000
0100
0000
0010
0000
0001
0100
1000
0000
0100
0000
0010
0000
0100
0000
,  // measure 67
0010
0001
0100
0001
0100
0010
0001
0100
,  // measure 68
0001
0000
0100
0000
0010
0000
0001
0100
1000
0000
0010
0000
0100
0000
0010
0000
,  // measure 69
0100
0001
0100
0010
0001
0100
0001
0100
,  // measure 70
1000
0000
0001
0000
0100
0000
0001
0010
1000
0000
0001
0000
0100
0000
0010
0000
,  // measure 71
1000
0000
0000
0001
0000
0000
0010
0000
0000
0100
0000
0000
0000
0000
0000
0000
,  // measure 72
0100
0000
0000
0000
0010
0000
0001
0100
0000
0000
0000
0000
0000
0000
0000
0000
,  // measure 73
0100
0001
1000
0001
0010
0100
0001
0010
,  // measure 74
0100
0000
0001
0000
1000
0000
0100
0001
0010
0000
0010
0000
0100
0000
0010
0000
,  // measure 75
0100
0010
0001
0100
0001
0100
1000
0010
,  // measure 76
0100
0000
0001
0000
1000
0000
0001
0010
0100
0000
0001
0000
0100
0000
0001
0000
,  // measure 77
1000
0001
0010
0100
0001
0010
0100
0001
,  // measure 78
1000
0000
0100
0000
0010
0000
0100
1000
0001
0000
0100
0000
0010
0000
0100
0000
,  // measure 79
0001
0100
0010
0001
1000
0001
0100
0010
,  // measure 80
1000
0100
0001
0010
0100
0000
0001
0010
0100
0001
0010
0000
0100
0001
0010
0100
,  // measure 81
0001
0000
0100
0001
0100
0010
0100
0001
1000
0000
0010
0100
1000
0001
0100
0010
,  // measure 82
0100
0000
0001
1000
0100
0001
0100
0001
0010
0000
0100
0000
0001
1000
0100
0001
,  // measure 83
0010
0000
0100
0010
0001
0100
0001
1000
0100
0000
0010
0100
0001
1000
0001
0010
,  // measure 84
0100
0000
0100
0010
1000
0001
0100
0000
0100
0000
0010
0000
0100
0001
1000
0001
,  // measure 85
0010
0100
0001
0000
0100
0000
0010
0000
0001
0000
0100
0000
0001
0000
0100
0000
,  // measure 86
1000
0010
0100
0010
0001
0100
0001
0100
,  // measure 87
0010
0001
1000
0001
0100
0010
0001
0100
,  // measure 88
0001
0000
0100
0000
1000
0000
0001
0000
0100
0010
0100
0001
1000
0010
0100
0000
;
