#TITLE:she a baddie and a boss;
#SUBTITLE:;
#ARTIST:Kaya Ka$h;
#TITLETRANSLIT:;
#SUBTITLETRANSLIT:;
#ARTISTTRANSLIT:;
#GENRE:;
#CREDIT:;
#BANNER:;
#BACKGROUND:;
#LYRICSPATH:;
#CDTITLE:;
#MUSIC:She A Baddie And A Boss.ogg;
#OFFSET:0.000000;
#SAMPLESTART:100.059883;
#SAMPLELENGTH:12.000000;
#SELECTABLE:YES;
#BPMS:0.000000=105.000000
;
#STOPS:0.000000=0.050000
;
#BGCHANGES:;
#KEYSOUNDS:;
#ATTACKS:;

//---------------dance-single - ----------------
#NOTES:
     dance-single:
     :
     Hard:
     14:
     0.614996,0.675758,0.092671,0.016849,0.741365,511.000000,500.000000,11.000000,2.000000,0.000000,0.000000,0.614996,0.675758,0.092671,0.016849,0.741365,511.000000,500.000000,11.000000,2.000000,0.000000,0.000000:
// measure 0
0000
0000
0000
0000
,  // measure 1
0000
0000
0000
0000
0000
0000
0000
0000
0000
0000
0100
0010
0001
0100
0001
1000
,  // measure 2
0001
0000
0000
0000
0000
0000
0001
0100
0010
0000
0100
0000
0001
0000
0010
0000
,  // measure 3
0100
0000
0000
0000
0000
0000
0001
0000
0100
0000
0010
0001
0100
0001
0100
1000
,  // measure 4
0100
0000
0000
0000
0000
0000
1000
0100
0001
0000
0010
0100
0001
1000
0100
0000
,  // measure 5
0001
0000
0100
1000
0001
0100
0010
0000
0001
0000
0010
0100
0001
1000
0001
0010
,  // measure 6
0100
0000
0000
0000
0000
0000
0100
0001
0010
0000
0100
0000
0001
0000
0010
0000
,  // measure 7
0100
0000
0000
0000
0000
0000
0001
0000
0100
0000
0010
0001
0100
0010
0001
1000
,  // measure 8
0100
0000
0000
0000
0000
0000
0100
0010
0100
0000
0001
1000
0100
0001
0010
0000
,  // measure 9
0100
0000
0001
1000
0100
0001
0010
0000
0100
0000
0010
0000
0100
0000
0000
0000
,  // measure 10
0001
0100
0001
0100
1000
0100
0010
0001
0100
0010
0001
1000
0001
0100
0001
0100
,  // measure 11
0010
0000
0100
0000
0001
1000
0100
0001
0010
0100
0001
1000
0001
0100
0010
0100
,  // measure 12
0010
0010
0001
0100
1000
0000
0010
0001
0100
0000
0010
0100
0000
0010
0001
0100
,  // measure 13
1000
0000
0100
0000
0010
0100
0001
0000
1000
0000
0100
0001
0000
0010
0000
0000
,  // measure 14
0100
0000
0001
1000
0000
0100
0010
0100
0001
0100
0010
0000
0100
0001
0000
0000
,  // measure 15
0010
0000
0001
0000
0100
0000
0010
0000
0010
0001
0100
0000
0010
0100
0000
0010
,  // measure 16
0100
0001
0010
0000
0100
0000
0001
0000
0010
0000
0100
0001
0000
0000
1000
0000
,  // measure 17
0100
0010
0100
0000
0110
0000
0001
1000
0100
0000
0001
0010
0000
0000
0110
0000
,  // measure 18
0001
1000
0000
0100
0001
0000
0100
0001
0010
0000
0001
0000
0100
0000
0000
0000
,  // measure 19
0010
0000
0100
0000
0001
0000
0010
0000
1000
0000
0001
0000
0100
0010
0000
0100
,  // measure 20
0001
1000
0100
0000
0001
0010
0100
0001
0010
0100
0001
1000
0001
0010
0100
0001
,  // measure 21
1000
0100
0001
0010
0100
0001
0100
0010
0001
0000
0100
0000
0010
0000
0100
0000
,  // measure 22
0001
0000
0000
0000
0000
1000
0100
0001
,  // measure 23
0010
0000
0000
0000
0000
0000
0100
0000
0001
0000
1000
0100
0010
1000
0001
0100
,  // measure 24
1000
0000
0000
0000
0000
0000
0100
0001
0010
0000
0010
0010
0100
0001
0100
0000
,  // measure 25
0010
0000
0100
0001
1000
0001
0010
0000
0100
0000
0010
0100
0001
1000
0001
0010
,  // measure 26
0100
0000
0000
0000
0000
0000
0100
0001
0010
0000
0100
0000
0001
0000
1000
0000
,  // measure 27
0001
0000
0000
0000
0000
0000
0010
0000
0100
0000
0001
1000
0100
0001
0100
0001
,  // measure 28
0010
0000
0000
0000
0000
0000
0100
0001
0010
0000
0100
0001
1000
0001
0010
0000
,  // measure 29
0100
0000
0010
0100
0001
1000
0001
0000
1000
0000
0101
0000
0000
0000
0000
0100
,  // measure 30
0010
0100
0001
0100
1000
0010
0001
1000
0001
0100
0010
0001
0100
0010
0001
0100
,  // measure 31
1000
0000
0010
0000
0010
0100
0001
0100
1000
0100
0001
1000
0001
0010
0100
0001
,  // measure 32
0010
0000
0100
0001
1000
0001
0010
0000
0100
0000
1000
0001
0000
0000
1100
0000
,  // measure 33
0000
0000
0100
0000
0010
1000
0001
0010
0100
0000
0100
0010
0000
0000
0011
0000
,  // measure 34
0000
0000
1000
0100
0001
0010
0100
0001
0100
0000
0010
0100
0000
0000
0010
0100
,  // measure 35
0001
0010
0100
0010
0001
0000
0010
0100
0010
0000
0001
1000
0000
0000
0101
0000
,  // measure 36
0000
0000
0100
0000
0010
0001
0100
0000
0100
0000
0010
0001
0000
0000
1001
0000
,  // measure 37
0000
0001
0100
0010
0100
0000
0001
0010
0100
0000
0010
0100
0000
0000
0110
0000
,  // measure 38
0001
1000
0100
0000
0001
0100
0001
0010
0100
0000
0010
0100
0001
0010
0100
0001
,  // measure 39
0010
0000
0100
0000
0001
1000
0100
0001
0010
0000
0010
0001
0100
0001
0100
0010
,  // measure 40
0100
0000
0000
0000
0000
0000
0100
1000
0001
0000
0010
0100
0001
1000
0100
0000
,  // measure 41
0010
0000
0100
0001
1000
0100
0001
0000
0000
0000
0010
0100
0001
1000
0001
0010
,  // measure 42
0100
0000
0000
0000
0000
0000
0010
0100
0001
0000
1000
0000
0010
0000
0001
0000
,  // measure 43
0100
0000
0000
0000
0000
0000
0100
0000
0001
0000
1000
0100
0001
0010
0100
0001
,  // measure 44
0010
0000
0000
0000
0000
0000
0001
0100
0010
0000
0001
1000
0001
0100
0010
0000
,  // measure 45
1000
0000
0100
0001
0100
0010
0001
0000
0010
0000
0110
0000
0000
0000
1000
0000
,  // measure 46
0100
0010
0100
0001
0010
0001
0100
0000
0100
0010
0001
0100
1000
0000
0101
0000
,  // measure 47
0000
0000
0100
0000
0010
0000
1000
0100
0001
0010
0100
0010
0100
0001
1000
0001
,  // measure 48
0010
0000
0000
0000
0100
0001
1000
0001
0010
0000
0000
0000
0100
0010
0001
0100
,  // measure 49
1000
0000
0000
0000
0010
0100
0001
0100
0010
0000
0001
0000
0100
0000
1000
0000
,  // measure 50
0220
0000
0000
0000
,  // measure 51
0000
0000
0000
0330
;
