#VERSION:0.83;
#TITLE:scissor redemption;
#SUBTITLE:;
#ARTIST:Taku Iwasaki & Namichie;
#TITLETRANSLIT:;
#SUBTITLETRANSLIT:;
#ARTISTTRANSLIT:;
#GENRE:;
#ORIGIN:;
#CREDIT:;
#BANNER:;
#BACKGROUND:;
#PREVIEWVID:;
#JACKET:;
#CDIMAGE:;
#DISCIMAGE:;
#LYRICSPATH:;
#CDTITLE:;
#MUSIC:Scissor Redemption.ogg;
#OFFSET:0.000000;
#SAMPLESTART:100.059883;
#SAMPLELENGTH:12.000000;
#SELECTABLE:YES;
#BPMS:0.000=162.000,
378.000=232.000;
#STOPS:0.000=0.200;
#DELAYS:;
#WARPS:;
#TIMESIGNATURES:0.000=4=4;
#TICKCOUNTS:0.000=4;
#COMBOS:0.000=1;
#SPEEDS:0.000=1.000=0.000=0;
#SCROLLS:0.000=1.000;
#FAKES:;
#LABELS:0.000=Song Start;
#BGCHANGES:;
#KEYSOUNDS:;
#ATTACKS:
;

//---------------dance-single - ----------------
#NOTEDATA:;
#CHARTNAME:;
#STEPSTYPE:dance-single;
#DESCRIPTION:;
#CHARTSTYLE:;
#DIFFICULTY:Hard;
#METER:15;
#RADARVALUES:0.753275,1.110742,0.302314,0.042183,0.513232,750.000000,707.000000,43.000000,6.000000,0.000000,0.000000,0.000000,0.000000,0.000000,0.753275,1.110742,0.302314,0.042183,0.513232,750.000000,707.000000,43.000000,6.000000,0.000000,0.000000,0.000000,0.000000,0.000000;
#CREDIT:;
#NOTES:
// measure 0
0000
0000
0000
0000
,  // measure 1
0000
0000
0000
0000
,  // measure 2
0001
0100
0220
0330
,  // measure 3
0100
0000
0100
0000
0001
1000
0100
0010
,  // measure 4
0000
1000
0001
0100
0000
0001
0100
0001
,  // measure 5
1001
0000
0001
0000
0100
0000
0010
0100
,  // measure 6
1001
0000
0010
0000
0001
0100
0000
0001
,  // measure 7
0000
0000
0100
0000
0010
0001
1000
0100
,  // measure 8
0000
0010
0100
0001
0000
0100
1000
0000
,  // measure 9
1001
0010
0001
0000
0000
1000
1001
0000
,  // measure 10
0000
0010
0001
1000
0001
0100
1000
0100
,  // measure 11
0101
0000
0100
0000
0010
0000
0100
0001
,  // measure 12
0000
0000
0100
0001
0000
1000
0100
0010
,  // measure 13
1001
0000
0010
0100
0001
0000
0100
0000
,  // measure 14
0000
0000
1000
0001
0100
0010
0001
0100
,  // measure 15
1000
0000
0010
0100
0001
0100
0001
0100
,  // measure 16
0000
0001
0100
0010
0101
0000
0101
0000
,  // measure 17
0001
0100
0010
0001
0100
0001
1000
0100
,  // measure 18
0001
0100
0001
0100
1000
0000
0001
1000
,  // measure 19
0001
0000
0100
0000
0010
0000
0001
0100
1000
0000
0001
0000
0101
0000
0000
0000
,  // measure 20
0001
0100
0001
0100
1000
0000
0101
0010
,  // measure 21
0001
0100
0001
0100
1000
0000
0000
0000
,  // measure 22
0100
0000
0000
0000
0001
1000
0000
0000
0010
0000
0000
0000
0010
0000
0001
0000
,  // measure 23
0100
0010
0001
0100
1000
0000
0001
1000
,  // measure 24
0001
0000
0100
0000
0010
0001
0100
0000
1000
0000
0000
0000
0101
0000
0000
0000
,  // measure 25
0100
0000
0001
0000
1000
0000
0001
0000
0010
0000
0100
0001
1000
0001
0010
0000
,  // measure 26
0100
0010
0001
0100
0001
0100
1000
0010
,  // measure 27
0001
0100
0010
0001
0100
0001
0100
0010
,  // measure 28
0100
0010
0001
0100
0001
0100
0010
0001
1000
0001
0100
0010
0001
0100
0001
1000
,  // measure 29
0100
0100
0010
0001
0100
0001
0100
1000
,  // measure 30
0001
0100
0001
0100
0010
0001
1000
0001
,  // measure 31
0100
0010
0001
0100
0001
0100
0010
0100
,  // measure 32
0001
0100
0010
0001
1000
0001
0100
0010
,  // measure 33
1001
0000
0100
0001
0010
0000
0000
0000
,  // measure 34
1000
0001
0100
0000
,  // measure 35
0100
0000
0010
0000
0001
1000
0001
0100
,  // measure 36
0000
1000
0100
0001
0000
0010
0001
0100
,  // measure 37
0110
0000
0010
0000
0001
0000
0100
0010
,  // measure 38
0101
0000
0001
0000
0100
0001
0000
1000
,  // measure 39
0000
0000
0001
0000
0100
0010
0100
0001
,  // measure 40
0000
0000
1000
0100
0000
0001
0010
0000
,  // measure 41
0000
0000
1000
0000
0001
0000
0100
0010
,  // measure 42
0100
0000
0000
0000
0010
0000
0100
0000
0000
0000
0100
0010
1000
0100
0001
0100
,  // measure 43
0001
0000
0100
0001
0010
0000
0000
1000
,  // measure 44
0000
0000
0100
0000
0001
1000
1001
0100
,  // measure 45
0010
0100
0001
0100
1000
0000
1000
0100
,  // measure 46
0001
0000
0010
0001
0100
0001
0100
0010
,  // measure 47
0100
0001
0000
0000
0010
0001
0100
0001
,  // measure 48
1000
0000
0100
0000
0000
0000
0010
0100
0001
0000
0100
0000
0010
0000
0000
0000
,  // measure 49
0101
0000
0001
0100
1001
0000
0100
0010
,  // measure 50
1001
0000
0010
0100
0001
0010
0100
0001
,  // measure 51
1100
0000
0100
0010
0110
0000
0001
0100
,  // measure 52
0110
0000
0000
0000
0010
0000
0001
0000
1100
0000
0000
0000
0010
0000
0001
0100
,  // measure 53
1000
0000
0000
0000
0100
0001
0000
0000
0110
0000
0000
0000
0001
0000
0010
0000
,  // measure 54
0100
0000
1000
0100
0010
0000
0001
0100
,  // measure 55
0000
0000
0010
0000
0001
0100
0001
0100
,  // measure 56
1000
0000
0001
0100
0010
0000
0001
0100
,  // measure 57
0001
0100
0010
0001
0100
0010
0001
1000
0001
0100
0010
0001
0100
0001
0100
1000
,  // measure 58
0100
0010
0001
0100
0010
0001
1000
0001
0100
0010
0001
0100
0001
0100
1000
0100
,  // measure 59
0010
0001
0100
0001
0100
0001
0100
0010
0001
1000
0001
0100
0010
0001
0100
0001
,  // measure 60
0100
0010
0001
1000
0001
0100
0010
0001
1000
0001
0100
0000
0000
0000
0001
0000
,  // measure 61
0010
0001
0100
0010
0001
0100
0010
0001
0100
0001
0100
0010
0001
1000
0001
0100
,  // measure 62
0010
0001
0100
0001
0100
0001
0100
0010
0001
0100
0001
0100
1000
0100
0001
0010
,  // measure 63
0100
0010
0001
0100
0010
0001
1000
0001
0100
0010
0001
0100
0001
0100
1000
0010
,  // measure 64
0001
0100
0001
1000
0001
0100
0010
0001
0100
0001
0100
0010
0001
1000
0100
0010
,  // measure 65
0200
0000
0000
0010
0000
0000
0010
0000
,  // measure 66
0010
0000
0000
0010
0000
0000
0310
0000
,  // measure 67
2001
0000
0000
0001
0000
0000
3001
0000
,  // measure 68
0101
0000
0101
0000
0110
0000
0101
0001
,  // measure 69
0000
0000
0100
0010
0100
1000
0000
0100
,  // measure 70
0000
0001
1000
0001
0110
0000
0101
0000
,  // measure 71
0101
0000
0001
1000
0100
0010
0001
0100
,  // measure 72
0000
0000
0100
0010
0101
0000
0101
0000
,  // measure 73
1001
0000
0101
0000
0110
0000
0100
0001
,  // measure 74
0000
0010
0001
1000
0001
0100
1001
0001
,  // measure 75
0101
0000
0001
1000
0100
0000
0010
0100
,  // measure 76
0000
0000
0001
0100
1000
0010
0100
0001
,  // measure 77
0010
0000
1000
0001
0100
0000
0000
0000
,  // measure 78
0100
0001
0100
0000
,  // measure 79
0100
0000
0010
0000
0001
1000
0001
0100
,  // measure 80
0000
0001
1000
0100
0000
0100
0001
0100
,  // measure 81
1001
0000
0001
0000
0010
0000
0100
0001
,  // measure 82
0110
0000
0001
0000
0100
0001
0000
0010
,  // measure 83
0100
0001
0100
0001
0010
0100
0001
0010
0100
0010
0001
0010
0100
0010
1000
0000
,  // measure 84
0001
0100
0001
0100
0010
0001
1000
0001
0100
0010
0001
0100
0001
0100
1000
0000
,  // measure 85
0100
0010
0001
0100
0010
0010
0001
0010
0000
0010
0100
0010
1000
0010
0100
0000
,  // measure 86
0100
0001
0010
0100
0001
0010
0100
0010
0001
0010
0100
0001
1000
0001
0100
0000
,  // measure 87
0100
0001
1000
0001
0001
0010
1000
0010
0001
0010
0100
0000
0001
0010
0100
0000
,  // measure 88
0010
0100
0001
0010
0100
0010
0001
0100
0000
0010
1000
0010
0100
0010
0001
0000
,  // measure 89
1000
0100
0001
0100
0001
1000
0001
0010
0100
0001
0010
0100
1000
0100
0001
0000
,  // measure 90
0010
0001
0100
0001
0100
0010
0001
1000
0001
0100
0001
0100
0001
1000
0100
0000
,  // measure 91
0100
0010
0001
0100
0010
0001
1000
0001
0100
0010
0001
0100
0001
1000
0100
0000
,  // measure 92
0100
0010
0001
1000
0001
0100
0010
0001
0100
0000
0000
0000
0010
0000
0000
0000
,  // measure 93
1001
0000
0000
0000
0000
0000
0000
0001
,  // measure 94
0000
0100
0010
0100
0001
0000
2002
0000
,  // measure 95
0000
0000
0000
3003
;
