#TITLE:scared;
#SUBTITLE:;
#ARTIST:Fred Again, & Young Thug;
#TITLETRANSLIT:;
#SUBTITLETRANSLIT:;
#ARTISTTRANSLIT:;
#GENRE:;
#CREDIT:;
#BANNER:;
#BACKGROUND:;
#LYRICSPATH:;
#CDTITLE:;
#MUSIC:scared.ogg;
#OFFSET:0.000000;
#SAMPLESTART:100.059883;
#SAMPLELENGTH:12.000000;
#SELECTABLE:YES;
#BPMS:0.000000=125.999992
;
#STOPS:104.000000=3.300000,
105.000000=3.000000,
107.000000=2.800000,
108.979164=0.000000,
301.000000=4.700000
;
#BGCHANGES:;
#KEYSOUNDS:;
#ATTACKS:;

//---------------dance-single - ----------------
#NOTES:
     dance-single:
     :
     Hard:
     11:
     0.408346,0.466544,0.118930,0.049212,0.084071,697.000000,668.000000,29.000000,12.000000,0.000000,0.000000,0.408346,0.466544,0.118930,0.049212,0.084071,697.000000,668.000000,29.000000,12.000000,0.000000,0.000000:
// measure 0
0000
0000
0000
0000
,  // measure 1
0000
0000
0000
0000
,  // measure 2
0100
0001
0100
0010
,  // measure 3
0001
1000
0001
0100
,  // measure 4
0010
0001
1000
0001
,  // measure 5
0100
0000
0000
0000
0001
0000
0000
0000
0100
0000
0000
0000
1000
0000
0000
0001
,  // measure 6
0100
0000
0000
0000
0001
0000
0000
0000
0100
0000
0000
1000
0000
0000
0000
0000
,  // measure 7
0001
0000
0000
0000
0100
0000
0000
0000
0010
0000
0000
1000
0000
0000
1001
0000
,  // measure 8
0100
0000
0000
0000
0010
0000
0000
0000
0001
0000
0000
0100
0000
0000
0000
0000
,  // measure 9
0100
0000
0000
0000
0010
0000
0000
0000
0001
0000
0000
0100
0000
0000
0000
0001
,  // measure 10
0010
0000
0000
0000
0001
0000
0000
0000
0100
0000
0000
1000
0000
0000
0000
0000
,  // measure 11
0010
0000
0000
0000
0001
0000
0000
0000
0100
0000
0000
1000
0000
0000
0000
0000
,  // measure 12
0010
0000
0000
0000
0001
0000
0000
0000
0100
0000
0000
1000
0000
0000
0000
0000
,  // measure 13
0100
0000
0000
0000
0010
0000
0000
0000
0001
0000
0000
0100
0000
0000
0000
0001
,  // measure 14
0010
0000
0000
0000
0100
0000
0000
0000
0010
0000
0000
0001
0000
0000
0000
0000
,  // measure 15
0010
0000
0000
0000
0001
0000
0000
0000
0100
0000
0000
0010
0000
0000
0101
0000
,  // measure 16
0100
0000
0000
0000
0010
0000
0000
0000
0001
0000
0000
0100
0000
0000
0000
0000
,  // measure 17
0010
0000
0000
0000
0001
0000
0000
0000
0100
0000
0000
0010
0000
0000
0000
0010
,  // measure 18
0001
0000
0000
0000
1000
0000
0000
0000
0001
0000
0000
0100
0000
0000
0000
0000
,  // measure 19
0100
0000
0000
0000
0010
0000
0000
0000
0001
0000
0000
0100
0000
0000
0000
0000
,  // measure 20
1000
0000
0000
0000
0001
0000
0000
0000
0100
0000
0000
0010
0000
0000
0000
0000
,  // measure 21
0001
0000
0000
0000
0100
0000
0000
0000
0010
0000
0000
0001
0000
0000
0000
1000
,  // measure 22
0100
0000
0000
0000
0010
0000
0000
0000
0001
0000
0000
0100
0000
0000
0000
0000
,  // measure 23
0010
0000
0000
0000
0001
0000
0000
0000
0100
0000
0000
1000
0000
0000
0101
0000
,  // measure 24
0001
0000
0000
0000
0010
0000
0000
0000
0001
0000
0000
0100
0000
0000
0000
0000
,  // measure 25
0001
0000
0000
0000
0100
0000
0000
0000
0010
0000
0000
0001
0000
0000
0000
0100
,  // measure 26
1000
0100
0010
0001
,  // measure 27
0100
0000
1000
0000
0000
0100
0010
0001
,  // measure 28
1000
0001
0100
0010
0001
1000
0001
0100
,  // measure 29
1000
0100
0010
0001
,  // measure 30
1000
0001
0100
0010
,  // measure 31
0001
0000
0000
0100
1000
0000
0000
0000
0010
0000
0001
0000
1000
0000
0001
0000
,  // measure 32
0100
0000
0010
0000
0001
0000
1000
0000
0001
0000
0100
0000
1000
0000
0000
0001
,  // measure 33
0000
1000
0101
0000
0100
0010
0001
1000
,  // measure 34
0001
0000
0100
0000
0010
0000
0001
0000
1000
0000
0001
0000
0100
0000
0000
0010
,  // measure 35
0000
0001
0110
0000
0001
1000
0001
0100
,  // measure 36
0010
0000
0001
0000
1000
0000
0001
0000
0100
0000
1000
0000
0001
0000
0000
0100
,  // measure 37
0000
0010
0000
0001
0100
0010
0001
1000
,  // measure 38
0001
0100
1000
0000
0001
0000
0200
0000
,  // measure 39
0300
0000
0010
0100
0001
1000
0010
0001
,  // measure 40
0100
1000
0001
0100
0010
0001
1000
0001
,  // measure 41
0100
0000
0001
0100
1000
0000
0001
0000
0100
0000
0001
0000
0100
0000
0010
0000
,  // measure 42
0001
0100
0001
0100
0001
0100
0001
0100
,  // measure 43
1000
0010
0001
0100
0010
0001
1000
0001
,  // measure 44
0100
0010
0001
0100
0001
0100
1000
0001
,  // measure 45
0100
0000
0100
0010
0001
0000
0010
0000
0100
0000
0010
0000
0001
0000
0100
0000
,  // measure 46
0001
0100
0010
0001
1000
0001
0100
0010
,  // measure 47
1001
0000
1001
0000
1000
0001
0100
0010
,  // measure 48
1001
0000
0101
0000
0010
0100
0001
0000
,  // measure 49
0000
0000
1001
0000
0001
0100
0001
0100
,  // measure 50
0001
1000
0100
0010
0001
0100
1000
0000
,  // measure 51
0000
0000
1001
0000
1000
0001
0100
0010
,  // measure 52
1001
0000
0101
0000
0100
0010
0001
0000
,  // measure 53
1000
0001
0101
0000
0010
0001
0100
0001
,  // measure 54
1100
0000
1001
0000
0100
0010
0101
0000
,  // measure 55
0000
1001
0100
0010
0001
0100
0010
0001
,  // measure 56
0100
0001
0100
0010
0001
1000
0001
0100
,  // measure 57
1000
0000
0010
0001
0100
0000
0001
0000
0100
0000
0010
0000
0001
0000
0010
0000
,  // measure 58
0100
0001
0100
0001
0100
0001
0100
1000
,  // measure 59
0100
0010
0001
0100
0001
0100
0010
0001
,  // measure 60
0100
0001
0100
0010
0001
1000
0001
0100
,  // measure 61
0010
0000
0001
1000
0100
0000
0001
0000
1000
0000
0001
0000
0100
0000
0010
0000
,  // measure 62
0001
0100
0001
0100
0001
0100
0001
0100
,  // measure 63
1000
0100
0010
0001
0100
0001
0100
0001
,  // measure 64
0100
0001
0100
0010
0001
1000
0001
0100
,  // measure 65
0010
0000
0001
0100
1000
0000
0010
0000
0100
0000
0001
0000
0100
0000
0001
0000
,  // measure 66
0100
0001
0100
0010
0001
1000
0001
0100
,  // measure 67
0010
1001
0001
0100
0001
0100
0001
0100
,  // measure 68
1000
0010
0001
1000
0001
0100
0010
0100
,  // measure 69
1000
0000
0100
0001
0010
0000
0001
0000
1000
0000
0001
0000
0100
0000
0010
0000
,  // measure 70
0001
0100
0100
0010
0001
1000
0001
0100
,  // measure 71
0010
0100
0001
0000
0100
0010
0001
1000
,  // measure 72
0100
0000
0010
0000
0001
1000
0001
0100
,  // measure 73
1000
0001
0101
0000
0010
0001
0100
0001
,  // measure 74
1100
0000
0101
0000
0100
0010
0001
1000
,  // measure 75
0001
0100
1100
0000
0000
0100
0001
1000
,  // measure 76
0100
0010
0100
0000
1000
0000
0220
0000
,  // measure 77
0000
0000
0000
0000
,  // measure 78
0000
0000
0000
0000
,  // measure 79
0000
0000
0000
0000
,  // measure 80
0000
0000
0000
0000
,  // measure 81
0000
0000
0000
0000
,  // measure 82
0000
0000
0000
0000
,  // measure 83
0000
0000
0000
0000
,  // measure 84
0000
0000
0330
1000
,  // measure 85
0010
0100
1000
0001
0100
0010
0001
1000
,  // measure 86
0001
0000
0100
0000
0010
0000
0000
0100
0000
0000
0001
0000
0010
0000
0000
0000
,  // measure 87
0010
0100
0100
0001
0100
0010
0001
1000
,  // measure 88
0001
0000
0100
0000
0010
0000
0000
0001
0000
0000
0100
0000
0000
0000
0000
0000
,  // measure 89
0100
0010
0001
0100
0010
0001
1000
0001
,  // measure 90
0100
0000
0001
0000
0100
0000
0000
0010
0000
0000
0001
0000
0000
0000
0000
0000
,  // measure 91
0001
0010
0100
0100
0010
0010
0001
0000
,  // measure 92
0100
0000
2000
0000
3000
0000
0100
0100
,  // measure 93
0100
0010
0001
0100
0001
0100
0001
0001
,  // measure 94
0001
0010
0001
0100
1000
0100
0010
0010
,  // measure 95
0010
0100
0010
0001
0100
0010
0100
0100
,  // measure 96
0100
0001
0100
0001
0100
0010
1000
1000
,  // measure 97
1000
0001
0100
0001
0100
0010
0100
0100
,  // measure 98
0100
0001
1000
0001
0100
0010
0001
0001
,  // measure 99
0001
0010
0100
0001
0010
0100
1000
1000
,  // measure 100
1000
0001
0100
0010
0000
1001
0001
0001
,  // measure 101
0001
0100
0010
0001
0100
0001
1000
1000
,  // measure 102
1000
0000
0100
0000
0010
0000
0100
0000
0010
0000
0001
0100
0001
0000
0001
0000
,  // measure 103
0001
0010
0100
0001
0100
0010
1000
1000
,  // measure 104
1000
0001
0100
0010
0000
1001
0001
0001
,  // measure 105
0001
0010
0100
0001
0100
0010
1000
1000
,  // measure 106
1000
0000
0100
0000
0001
0000
0100
0000
0010
0000
0000
0100
0001
0000
0001
0000
,  // measure 107
0001
0010
0100
0001
0100
0001
2002
0000
,  // measure 108
0000
0000
0000
0000
3003
0000
0000
0100
,  // measure 109
0000
1000
0000
0001
0000
0100
0000
0010
,  // measure 110
0000
0001
0000
0100
0000
0010
0000
0100
,  // measure 111
0001
0100
0001
0010
0010
0001
0100
0010
,  // measure 112
0001
0100
0001
0100
0010
0001
1000
0001
,  // measure 113
0100
0010
0001
0100
0001
0100
2000
0000
,  // measure 114
0000
0000
0000
0000
,  // measure 115
0000
3000
1000
0100
0002
0000
0000
0000
,  // measure 116
0000
0003
0000
0000
0022
0000
0000
0000
,  // measure 117
0000
0000
0033
0000
0000
0220
0000
0000
,  // measure 118
0000
0000
0000
0000
,  // measure 119
0000
0000
0000
0330
;
