#TITLE:scandal anthem;
#SUBTITLE:;
#ARTIST:Fantasm & WINSON;
#TITLETRANSLIT:;
#SUBTITLETRANSLIT:;
#ARTISTTRANSLIT:;
#GENRE:;
#CREDIT:;
#BANNER:;
#BACKGROUND:;
#LYRICSPATH:;
#CDTITLE:;
#MUSIC:SCANDAL ANTHEM.ogg;
#OFFSET:0.000000;
#SAMPLESTART:100.059883;
#SAMPLELENGTH:12.000000;
#SELECTABLE:YES;
#BPMS:0.000000=640.000000
,0.020833=160.000000
;
#STOPS:0.000000=10.700000,
32.000000=4.400000,
96.000000=9.000000,
188.000000=1.500000,
348.000000=9.000000,
380.000000=3.000000,
440.000000=1.500000
;
#BGCHANGES:;
#KEYSOUNDS:;
#ATTACKS:;

//---------------dance-single - ----------------
#NOTES:
     dance-single:
     :
     Hard:
     13:
     0.523393,0.767098,0.372100,0.192183,0.611307,896.000000,805.000000,91.000000,47.000000,0.000000,0.000000,0.523393,0.767098,0.372100,0.192183,0.611307,896.000000,805.000000,91.000000,47.000000,0.000000,0.000000:
// measure 0
0000
0200
0000
0300
,  // measure 1
0020
0030
0200
0300
,  // measure 2
0020
0000
0000
0030
,  // measure 3
0002
0003
0200
0300
,  // measure 4
0020
0000
0000
0030
,  // measure 5
0020
0030
0002
0003
,  // measure 6
0200
0000
0000
0300
,  // measure 7
0020
0030
0100
0100
,  // measure 8
1001
0000
0000
0000
,  // measure 9
0002
0003
0200
0300
,  // measure 10
0020
0000
0000
0030
,  // measure 11
0200
0300
0020
0030
,  // measure 12
0002
0000
0000
0003
,  // measure 13
0200
0300
0020
0030
,  // measure 14
0002
0000
0000
0003
,  // measure 15
0100
0100
0010
0010
,  // measure 16
0002
1000
1000
1003
,  // measure 17
0020
0130
0200
0301
,  // measure 18
2001
0001
0001
3001
,  // measure 19
0200
0301
0002
1003
,  // measure 20
0201
0001
0001
0301
,  // measure 21
0200
0301
0020
0031
,  // measure 22
0210
0010
0010
0310
,  // measure 23
0200
1300
0020
0031
,  // measure 24
0000
0000
0000
0100
0000
0001
0010
0000
0000
0000
0000
0000
,  // measure 25
0000
0000
0100
0001
0000
1000
0100
0000
0000
0010
0000
0000
,  // measure 26
0001
0000
0000
0100
0000
0010
0100
0000
0000
0010
0000
0000
,  // measure 27
0000
0000
1000
0100
0000
0010
0100
0000
0000
0001
0000
0000
,  // measure 28
0100
0000
0000
0010
0000
0001
0100
0000
0000
0001
0000
0000
,  // measure 29
0000
0000
1000
0100
0000
0001
0010
0000
0000
0010
0000
0000
,  // measure 30
0001
0000
0100
0010
0000
0010
0001
0000
0000
1000
0000
0000
,  // measure 31
0000
0000
0001
1000
0100
0001
0010
0100
0010
0001
0000
0000
,  // measure 32
0010
0000
0001
0100
0000
0100
0010
0000
1000
0001
0000
0100
,  // measure 33
0001
0000
0010
0100
0000
0001
1000
0100
0001
0100
0001
1000
,  // measure 34
0001
0000
0010
0100
0000
0010
0001
0000
1000
0100
0000
0010
,  // measure 35
0100
0000
0010
0001
1000
0001
0100
0010
0001
1000
0001
0100
,  // measure 36
1000
0000
0010
0100
0000
0001
0010
0000
0100
0001
0000
1000
,  // measure 37
0100
0000
0010
0001
0000
0100
0010
0001
0100
0001
1000
0100
,  // measure 38
0010
0000
0100
0001
0000
1000
0100
0000
0001
0010
0000
0100
,  // measure 39
0001
0000
0010
0001
1000
0001
0100
0010
0001
1000
0001
0100
,  // measure 40
1000
0010
0001
0100
0010
0001
1000
0001
,  // measure 41
0100
0010
0001
1000
0001
0100
0010
0001
,  // measure 42
0100
0001
0100
0010
0001
1000
0001
0100
,  // measure 43
0010
0001
1000
0001
0100
0010
0001
1000
,  // measure 44
0011
0011
1010
0101
,  // measure 45
0110
0110
0101
1100
,  // measure 46
0110
0101
0110
0101
,  // measure 47
1001
0000
0001
0100
0000
0010
0100
0000
0001
1000
0000
0100
,  // measure 48
0001
0000
0010
0100
0000
0001
1000
0100
0001
0100
0001
1000
,  // measure 49
0001
0000
0010
0100
0000
1000
0001
0000
0100
0010
0000
0001
,  // measure 50
0100
0000
0010
0001
1000
0001
0100
0010
0001
1000
0001
0100
,  // measure 51
1000
0000
0001
0010
0000
0100
0001
0000
1000
0100
0000
0001
,  // measure 52
0010
0000
0010
0001
0010
0100
1000
0010
0100
0001
0100
0010
,  // measure 53
0100
0000
0010
0001
0000
0100
0001
0000
1000
0100
0000
0001
,  // measure 54
0010
0000
0100
0001
0000
0010
0100
0001
1000
0001
0010
0100
,  // measure 55
0001
0000
0010
0100
0000
0001
1000
0000
0100
0001
0000
0010
,  // measure 56
0100
0000
0001
1000
0100
0001
0100
0001
1000
0001
0010
0100
,  // measure 57
0001
0000
1000
0100
0000
0100
0010
0000
0010
0001
0000
1000
,  // measure 58
0100
0000
0001
0010
0000
0100
0101
0010
0010
0010
0001
1000
,  // measure 59
0100
0000
0010
0001
0100
1000
0100
0000
0010
0001
0100
0010
,  // measure 60
0001
0000
1000
0000
0001
0000
0100
0000
0010
0000
0001
0000
1000
0000
0001
0000
0100
0000
1000
0100
0001
0100
0001
0010
,  // measure 61
1000
0000
0000
0000
0000
0000
0100
0001
0100
0001
1000
0001
0010
0000
0000
0000
0000
0000
1000
0000
0000
0000
0000
0000
,  // measure 62
1001
0000
0000
0100
0001
1000
0001
0010
0100
0001
0010
0100
,  // measure 63
0001
0100
0010
0001
1000
0001
0100
0010
0001
1000
0001
0100
,  // measure 64
1000
0100
0010
0001
1000
0001
0100
0010
0001
1000
0001
0100
,  // measure 65
1000
0010
0001
0100
0010
0001
1000
0001
0100
0010
0001
1000
,  // measure 66
0001
0100
0010
0001
1000
0001
0100
0010
0001
1000
0001
0100
,  // measure 67
0010
0001
0100
0001
0100
1000
0001
0100
,  // measure 68
1000
0001
0100
0010
0001
1000
0001
0100
,  // measure 69
0100
0010
0001
1000
0001
0100
0010
0001
1000
0001
0100
0010
0001
1000
0001
0100
,  // measure 70
1000
0000
0000
0100
0001
0100
0001
0000
0000
0010
0000
0000
,  // measure 71
1000
0000
0100
0001
0000
0010
0100
0000
0010
0001
0000
0010
,  // measure 72
0001
0000
0100
1000
0000
0001
0100
0000
0010
0100
0000
0001
,  // measure 73
1000
0000
0100
0001
0000
0010
0100
0000
0001
0010
0000
0010
,  // measure 74
0001
0000
1000
0100
0010
0001
0100
0000
0000
0001
0000
0000
,  // measure 75
1000
0000
0100
0001
0010
0100
0001
0000
0100
0010
0000
0100
,  // measure 76
0010
0000
0001
1000
0001
0100
1000
0000
0100
0001
0000
1000
,  // measure 77
0100
0000
0010
0001
0100
0001
1000
0000
0100
0001
0100
0001
,  // measure 78
1000
0000
0100
0001
1000
0001
0010
0000
0000
0001
0000
0100
,  // measure 79
0010
0000
0100
0001
0000
0100
1000
0000
0010
0001
0000
0100
,  // measure 80
0010
0000
0000
0000
0000
0000
0100
0000
0001
0000
1000
0000
0100
0000
0000
0001
0000
0000
1000
0000
0001
0000
0100
0000
,  // measure 81
1000
0000
0010
0100
0001
1000
0100
0000
0001
0010
0000
0100
,  // measure 82
0001
0000
0100
0001
1000
0100
0001
0000
0000
0001
0000
0000
,  // measure 83
0100
0000
0000
0000
0010
0000
0100
0001
1000
0100
0001
0100
0001
0000
0000
0000
0100
0000
1000
0000
0000
0000
0100
0000
,  // measure 84
0001
0000
0010
0100
0000
0010
0001
0000
0100
0001
0000
1000
,  // measure 85
0100
0000
0010
0100
0000
0100
0010
0000
0100
0001
0000
0100
,  // measure 86
1000
0000
0010
0100
0001
1000
0001
0000
0000
0220
0000
0000
,  // measure 87
0000
0000
0000
0330
,  // measure 88
0200
0000
0000
0300
,  // measure 89
0020
0000
0000
0000
,  // measure 90
0000
0000
0000
0030
,  // measure 91
0002
0000
0000
0003
,  // measure 92
0200
0000
0000
0300
,  // measure 93
2000
0000
0000
0000
,  // measure 94
0000
0000
0000
3000
,  // measure 95
0000
0000
0100
0010
,  // measure 96
0020
0030
0001
0100
,  // measure 97
2000
3000
0001
0100
,  // measure 98
0020
0000
0030
0000
0100
0001
1000
0001
,  // measure 99
0010
0100
0100
0001
,  // measure 100
1000
0010
0100
0001
,  // measure 101
1000
0001
1000
0001
,  // measure 102
0100
0000
0010
0000
0100
0001
0100
0010
,  // measure 103
1001
0010
1001
0001
,  // measure 104
0101
0001
0101
0010
,  // measure 105
1001
0000
0001
0000
0101
0001
0100
0001
,  // measure 106
0101
0000
0010
0000
1001
0001
1000
0001
,  // measure 107
1001
0101
0110
1100
,  // measure 108
0101
0110
0101
0011
,  // measure 109
1000
0100
0001
1000
0001
0010
0200
0000
0000
0000
0000
0000
,  // measure 110
0310
0101
0110
1100
,  // measure 111
0110
0000
0000
0101
0000
0000
0110
0000
0000
0100
0001
1000
,  // measure 112
0001
0101
0110
0110
,  // measure 113
1000
0000
0100
0001
0000
0010
0001
0000
0100
1000
0000
0001
,  // measure 114
0010
1100
0101
0110
,  // measure 115
0101
0000
0000
0101
0000
0000
0011
0000
0000
0100
0001
1000
,  // measure 116
0001
0110
1100
0101
,  // measure 117
0220
0000
0330
0000
1000
0001
0100
0001
,  // measure 118
0110
0110
0101
0110
,  // measure 119
1100
0000
0000
0110
0000
0000
0101
0000
0000
0100
0001
1000
,  // measure 120
0100
0110
0101
0110
,  // measure 121
0100
0000
0001
1000
0000
0100
0001
0000
0010
0100
0000
0000
,  // measure 122
0101
0000
0000
1000
0100
0001
0100
0000
0000
0110
0000
0000
,  // measure 123
0110
0000
0000
0101
0000
0000
0110
0000
0000
1000
0001
0100
,  // measure 124
1000
0000
0000
0000
0000
0000
0100
0001
1000
0100
0001
0100
0001
0000
0000
0000
0000
0000
0010
0000
0000
0000
0000
0000
,  // measure 125
0220
0000
0330
0000
0100
0001
0100
1000
,  // measure 126
0101
0110
0110
1100
,  // measure 127
0110
0000
0000
0101
0000
0000
0110
0000
0000
1000
0100
0001
,  // measure 128
0100
0101
0101
0110
,  // measure 129
1000
0000
0100
0001
0000
0010
0100
0000
0001
0010
0000
0100
,  // measure 130
1000
0000
0000
0100
0001
1000
0100
0000
0000
0110
0000
0000
,  // measure 131
0110
0000
0000
0000
0000
0000
0101
0000
0000
0000
0000
0000
0110
0000
0000
0000
0000
0000
1000
0100
0001
1000
0001
0010
,  // measure 132
0100
0000
0000
0000
0000
0000
0100
0001
1000
0100
0001
0100
0001
0000
0000
0000
0000
0000
0101
0000
0000
0000
0000
0000
,  // measure 133
0110
0110
1100
0101
,  // measure 134
1001
0000
0000
0000
;
