#VERSION:0.83;
#TITLE:stop2end;
#SUBTITLE:;
#ARTIST:Kenneth Takanami;
#TITLETRANSLIT:;
#SUBTITLETRANSLIT:;
#ARTISTTRANSLIT:;
#GENRE:;
#ORIGIN:;
#CREDIT:;
#BANNER:;
#BACKGROUND:;
#PREVIEWVID:;
#JACKET:;
#CDIMAGE:;
#DISCIMAGE:;
#LYRICSPATH:;
#CDTITLE:;
#MUSIC:KENNETH TAKANAMI - STOP2END (MUSIC VIDEO).ogg;
#OFFSET:0.000000;
#SAMPLESTART:0.059886;
#SAMPLELENGTH:12.000000;
#SELECTABLE:YES;
#BPMS:0.000=100.000,
16.000=200.000,
80.000=100.000,
112.000=200.000,
176.000=100.000,
212.000=200.000;
#STOPS:0.000=0.100;
#DELAYS:;
#WARPS:;
#TIMESIGNATURES:0.000=4=4;
#TICKCOUNTS:0.000=4;
#COMBOS:0.000=1;
#SPEEDS:0.000=1.000=0.000=0;
#SCROLLS:0.000=1.000;
#FAKES:;
#LABELS:0.000=Song Start;
#BGCHANGES:0.000=KENNETH TAKANAMI - STOP2END (MUSIC VIDEO).mp4=1.000=0=0=1=====,
99999=-nosongbg-=1.000=0=0=0 // don't automatically add -songbackground-
;
#KEYSOUNDS:;
#ATTACKS:
;

//---------------dance-single - ----------------
#NOTEDATA:;
#CHARTNAME:;
#STEPSTYPE:dance-single;
#DESCRIPTION:;
#CHARTSTYLE:;
#DIFFICULTY:Hard;
#METER:14;
#RADARVALUES:0.707546,0.806057,1.096277,0.048941,0.391527,506.000000,394.000000,112.000000,5.000000,0.000000,0.000000,0.000000,0.000000,0.000000,0.707546,0.806057,1.096277,0.048941,0.391527,506.000000,394.000000,112.000000,5.000000,0.000000,0.000000,0.000000,0.000000,0.000000;
#CREDIT:;
#NOTES:
// measure 0
0000
0000
0000
0000
,  // measure 1
0000
0000
0000
0000
,  // measure 2
0010
0001
0100
0010
0001
1000
0100
0000
,  // measure 3
0100
0100
0000
0000
0001
0000
0100
0010
,  // measure 4
1001
0101
0110
0101
,  // measure 5
1100
0110
0110
0101
,  // measure 6
0110
0000
1100
0000
0101
0000
0101
0101
,  // measure 7
0101
0000
0000
0000
0110
0000
0000
0000
1000
0001
1000
0001
0100
0000
0000
0000
,  // measure 8
1010
0110
0110
0101
,  // measure 9
0110
1100
0110
0101
,  // measure 10
0110
0110
1100
0110
,  // measure 11
0101
0000
0000
0110
0000
0000
0100
0000
0000
0100
0001
1000
,  // measure 12
0100
0110
0101
1100
,  // measure 13
0110
0000
0101
0000
0110
0000
0101
0101
,  // measure 14
0101
0101
0110
1100
,  // measure 15
0110
0000
0000
0000
0101
0000
0000
0000
0010
0001
0100
0010
0001
1000
0001
0100
,  // measure 16
1000
0110
0110
1100
,  // measure 17
0110
0110
0110
0101
,  // measure 18
0110
0000
0110
0000
0101
0000
1100
0101
,  // measure 19
0110
0000
0101
0101
0101
0000
0000
0000
,  // measure 20
0100
0000
0010
0001
1000
0001
0100
0001
,  // measure 21
0100
0001
0100
0010
0001
1000
0001
0100
,  // measure 22
1000
0000
0000
0000
1000
0000
0001
0000
0100
0000
0010
0000
1000
0100
0001
0000
,  // measure 23
0010
0000
0100
0010
0001
1000
0001
0100
,  // measure 24
1000
0000
0000
0000
0100
0001
0010
0010
0100
0000
1000
0100
0001
0000
0001
0000
,  // measure 25
0100
0000
0010
0000
0100
0010
0001
0000
0100
0000
0100
0000
0010
0000
0001
0100
,  // measure 26
1000
0000
0010
0000
0100
0001
0010
0000
0001
0000
0100
0000
0010
0000
0100
0000
,  // measure 27
1001
0000
0000
0010
0001
0000
0010
0000
0100
0000
1000
0000
0001
0000
0100
0000
,  // measure 28
1000
0100
0100
0010
,  // measure 29
0002
0003
0200
0000
,  // measure 30
0000
0300
0001
0100
,  // measure 31
0200
0000
0000
0000
0300
0000
0000
0000
1000
0001
1000
0100
0001
0000
0000
0000
,  // measure 32
0000
0000
0010
0100
,  // measure 33
0002
0003
2000
0000
,  // measure 34
0000
3000
0100
0010
,  // measure 35
0001
0100
0010
0001
0100
0001
0100
0010
0001
1000
0001
0100
0010
0100
0001
1000
,  // measure 36
0001
0110
0110
0110
,  // measure 37
0101
0000
0101
0000
0110
0000
1001
1001
,  // measure 38
1001
0110
0110
0110
,  // measure 39
0101
0000
0000
0000
0110
0000
0000
0000
0001
0100
0010
0001
1000
0001
0100
0001
,  // measure 40
1000
0110
0101
0110
,  // measure 41
1100
0110
0110
0101
,  // measure 42
0110
1100
0110
0101
,  // measure 43
0110
0101
1100
0110
,  // measure 44
0101
0000
0000
0000
0100
0000
0000
0000
0010
0000
0000
0000
0100
0010
0100
0001
,  // measure 45
0100
0000
0010
0000
0100
0001
1000
0001
0010
0000
0100
0000
0100
1000
0001
0100
,  // measure 46
1000
0000
0100
0000
0001
0100
0001
0100
1000
0000
0100
0000
0010
0001
0100
0000
,  // measure 47
0100
0000
0010
0000
0001
1000
0001
0100
1000
0000
0010
0000
0001
1000
0001
0100
,  // measure 48
1000
0000
0010
0000
0001
1000
0001
0100
1000
0000
0001
0000
0100
0010
0001
0000
,  // measure 49
1000
0000
0100
0000
0001
0010
0100
0001
1000
0000
0010
0000
0100
0001
1000
0001
,  // measure 50
0010
0000
0001
0000
0100
0010
0100
0001
1000
0000
0010
0000
0001
1000
0001
0100
,  // measure 51
1000
0000
0010
0000
0100
0001
1000
0100
0001
0000
0010
0000
1000
0001
0100
1000
,  // measure 52
0100
0000
0010
0000
0001
0100
0001
1000
0100
0000
0010
0000
1000
0001
0100
0010
,  // measure 53
0001
1001
0101
0110
,  // measure 54
0110
0000
0101
0000
0110
0000
1001
1001
,  // measure 55
1001
0110
0101
0110
,  // measure 56
0100
0010
0001
0100
0001
0100
0010
0001
1000
0001
0100
0010
0001
1000
0001
0100
,  // measure 57
1000
0110
0110
0101
,  // measure 58
0110
0110
1100
0110
,  // measure 59
0110
0000
0000
0000
0101
0000
0000
0000
0101
0000
0000
0000
0010
0001
1000
0001
,  // measure 60
0100
0010
0001
1000
0001
0100
0010
0001
1000
0001
0100
0010
0001
1000
0001
0100
,  // measure 61
1000
0000
0000
0000
;
