#TITLE:star;
#SUBTITLE:;
#ARTIST:Yena & Hatsune Miku;
#TITLETRANSLIT:;
#SUBTITLETRANSLIT:;
#ARTISTTRANSLIT:;
#GENRE:;
#CREDIT:;
#BANNER:;
#BACKGROUND:;
#LYRICSPATH:;
#CDTITLE:;
#MUSIC:YENASTAR! (feat. Hatsune Miku) Music Video.ogg;
#OFFSET:0.000000;
#SAMPLESTART:100.059883;
#SAMPLELENGTH:12.000000;
#SELECTABLE:YES;
#BPMS:0.000000=155.000000
;
#STOPS:
;
#BGCHANGES:0.000=YENASTAR! (feat. Hatsune Miku) Music Video.mp4=1.000=0=0=1=====,
99999=-nosongbg-=1.000=0=0=0 // don't automatically add -songbackground-
;
#KEYSOUNDS:;
#ATTACKS:;

//---------------dance-single - ----------------
#NOTES:
     dance-single:
     :
     Hard:
     13:
     0.630497,0.751230,0.356834,0.012521,0.165897,705.000000,648.000000,57.000000,2.000000,0.000000,0.000000,0.630497,0.751230,0.356834,0.012521,0.165897,705.000000,648.000000,57.000000,2.000000,0.000000,0.000000:
// measure 0
0000
0000
0000
0000
,  // measure 1
0000
0000
0000
0000
,  // measure 2
1000
0000
0001
0100
0000
0010
0001
0010
,  // measure 3
0001
0000
0000
0000
0100
0000
0000
0000
1000
0000
0000
0001
0000
0000
0010
0000
,  // measure 4
1000
0000
0000
0000
0010
0000
0001
0000
0000
0000
0100
0000
0001
1000
0100
0001
,  // measure 5
0010
0000
0000
0000
0100
0000
0001
1000
0100
0000
0010
0000
0001
0000
0100
0000
,  // measure 6
1000
0000
0100
0001
0000
1000
0101
0000
,  // measure 7
0000
0000
0010
0100
0000
0010
1001
0000
,  // measure 8
0100
0000
0010
0000
0001
1000
0100
0001
,  // measure 9
0100
0000
0010
0001
0100
0000
0010
0100
,  // measure 10
0001
0000
0010
0100
0000
0001
0100
1000
,  // measure 11
0010
0000
0000
0000
0010
0000
0000
0100
0001
0000
1000
0000
0000
0000
0100
0000
,  // measure 12
0001
0000
1000
0100
0001
0100
0001
0000
,  // measure 13
0100
0001
0100
0010
0001
1000
0001
0100
1000
0000
0000
0001
0010
0000
0100
0000
,  // measure 14
0010
0100
0000
0001
0010
0000
0000
1000
,  // measure 15
0001
0010
0000
0001
0100
0000
0001
0010
,  // measure 16
0100
0000
0010
0000
0100
0001
1000
0001
,  // measure 17
0001
0000
0000
0000
0100
0000
0010
0000
1000
0000
0100
0001
0000
0010
0100
0000
,  // measure 18
0001
0010
0100
0001
1000
0100
0001
1000
,  // measure 19
0001
0010
0100
0001
1000
0001
0010
0100
,  // measure 20
1001
0000
0110
0000
0100
0001
0100
0002
,  // measure 21
0000
0000
0000
0000
0003
0000
0100
0001
,  // measure 22
1001
0000
0000
0110
0000
0101
0000
1001
,  // measure 23
1001
0000
0101
0101
0000
1001
0000
1001
,  // measure 24
1001
0000
0101
0000
1100
0000
0110
0101
,  // measure 25
1001
0000
0000
0110
0000
0000
0101
0000
1001
0000
0000
0000
0110
0000
0000
0000
,  // measure 26
1001
0000
0000
0001
0100
0001
0100
0010
,  // measure 27
1001
0000
0100
0010
1001
0000
0101
0000
,  // measure 28
0100
0010
0100
0001
1000
0001
0010
0100
,  // measure 29
0001
0000
0001
0000
0100
0000
0010
0000
1000
0100
0001
0100
0001
1000
0001
0010
,  // measure 30
0100
0000
0010
0100
0000
0001
1000
0100
,  // measure 31
0010
0001
0100
0000
,  // measure 32
1000
0000
0100
0001
0000
0001
0100
1000
,  // measure 33
0000
0100
0001
1000
0001
0100
1000
0000
,  // measure 34
0001
0000
0100
1000
0000
0001
0100
1000
,  // measure 35
0010
0001
0100
0000
,  // measure 36
0100
0000
0000
0001
0000
0001
0100
1000
,  // measure 37
0000
0100
0010
0001
1000
0001
0100
0000
,  // measure 38
0010
0000
0001
0000
1000
0000
0001
0000
0100
0010
0100
0001
1000
0001
0010
0100
,  // measure 39
0001
0000
0100
0001
1000
0001
1000
0001
,  // measure 40
0100
0000
0010
0001
0100
0000
0010
0000
,  // measure 41
0001
0100
0010
0001
1000
0001
0100
0010
,  // measure 42
0001
0100
0001
0100
0001
1000
0100
0000
,  // measure 43
0001
0100
0010
0001
1000
0001
0100
0000
,  // measure 44
0100
0010
0001
0100
0001
0000
0000
0000
,  // measure 45
1000
0000
0100
0001
0010
0100
0001
1000
0001
0000
0010
0000
0100
0000
0000
0010
,  // measure 46
0100
0001
1000
0000
0100
0000
0010
0000
1000
0100
0001
0000
0000
0000
0010
0000
,  // measure 47
0100
0000
0000
0000
0001
0000
0000
0010
0100
0001
1000
0001
0000
0000
0010
0000
,  // measure 48
0001
0000
0001
0000
0100
0000
0010
0000
1000
0100
0001
0100
0000
0000
0010
0000
,  // measure 49
0100
0000
0001
0000
1000
0000
0001
0100
0010
0000
0100
0000
0001
0000
0100
0000
,  // measure 50
0010
0000
0001
0100
1000
0010
0100
0000
0000
0000
0000
0000
0100
0000
0000
0000
,  // measure 51
0001
1000
0000
0010
0001
0000
0100
0010
,  // measure 52
0001
0100
0000
1000
0100
0000
0010
0100
,  // measure 53
0100
0000
0100
0000
0010
0001
0100
1000
,  // measure 54
0010
0000
0001
0000
0100
0000
0010
0000
0100
0000
0001
1000
0000
0100
0001
0000
,  // measure 55
0010
0000
0000
0100
0010
0000
0000
0010
,  // measure 56
0001
0000
1000
0000
0001
0000
0100
0000
1000
0100
0001
1000
0001
0010
0100
0001
,  // measure 57
0020
0000
0000
0000
,  // measure 58
0000
0000
0000
0000
0030
0000
0010
0100
,  // measure 59
1001
0000
0000
0101
0000
1100
0000
0101
,  // measure 60
0110
0010
0001
1001
0000
0101
1100
0101
,  // measure 61
1100
0000
0110
0000
0101
0000
0110
1001
,  // measure 62
0110
0000
0000
0101
0000
0000
1100
0000
0101
0000
0000
0000
0110
0000
0000
0000
,  // measure 63
1001
0000
0000
0100
0001
1000
0010
0100
,  // measure 64
0110
0101
0110
1001
,  // measure 65
0001
0100
0010
0001
0100
0001
0100
0010
,  // measure 66
0001
0000
1000
0000
0001
0000
0100
0000
0010
0001
0100
0010
0001
1000
0001
0100
,  // measure 67
1000
0000
0100
0001
0000
0100
0001
0100
,  // measure 68
1001
0011
1001
0000
,  // measure 69
0100
0000
0010
0001
0000
0001
0100
0000
,  // measure 70
0000
0010
0001
1000
0001
0100
1000
0000
,  // measure 71
0100
0000
0010
0001
0000
0001
0100
1000
,  // measure 72
0101
0011
0011
0000
,  // measure 73
0100
0000
0010
0001
0000
0001
0100
0010
,  // measure 74
0000
0010
0001
1000
0001
0100
1000
0000
,  // measure 75
0100
0000
0000
0001
1000
0100
0000
0100
,  // measure 76
0000
0010
0001
1000
0001
0100
1000
0010
,  // measure 77
0100
0000
0001
0000
0000
0010
0000
0100
,  // measure 78
0001
0010
0001
0100
,  // measure 79
0010
0000
0001
0100
0001
1000
0100
0001
,  // measure 80
0000
1000
0100
0001
0010
0000
0100
0001
,  // measure 81
1000
0000
0100
0001
0000
0100
0000
0010
,  // measure 82
0100
0000
0010
0100
0000
0001
1000
0000
0001
1000
0100
0001
0010
0000
0000
0000
,  // measure 83
0010
0001
1000
0001
0100
0100
0010
0001
,  // measure 84
0100
0001
0100
0001
0100
0010
0001
1000
,  // measure 85
0001
0100
0010
0001
1000
0001
0100
0010
,  // measure 86
1000
0000
0100
0001
1000
0010
0100
0000
0001
0000
0010
0000
0100
0000
0001
0000
,  // measure 87
1000
1000
0001
0100
0010
0001
0100
0001
,  // measure 88
0100
0010
0001
0100
0001
0100
0010
0001
,  // measure 89
0100
0001
1000
0001
0100
0010
0001
0100
,  // measure 90
0001
0100
0010
0001
1000
0001
0100
0010
,  // measure 91
0001
1000
0001
0100
0010
0001
0100
0001
,  // measure 92
0100
0010
0001
1000
0001
0100
0010
0001
,  // measure 93
0100
0001
0100
0010
0001
1000
0001
0100
,  // measure 94
0001
0010
1000
0001
0100
0010
0001
0100
,  // measure 95
0001
0100
0010
0001
1000
0001
0100
0010
,  // measure 96
0001
1000
0001
0100
0010
0001
0100
0001
,  // measure 97
0100
0010
0001
1000
0001
0100
0010
0001
,  // measure 98
1000
0001
0100
0010
0001
1000
0001
0100
,  // measure 99
0010
0000
0001
0000
1000
0000
0001
0000
0100
0000
0010
0000
1000
0000
0001
1000
,  // measure 100
0100
0000
0000
0000
;
