#TITLE:roses are red;
#SUBTITLE:;
#ARTIST:Aqua;
#TITLETRANSLIT:;
#SUBTITLETRANSLIT:;
#ARTISTTRANSLIT:;
#GENRE:;
#CREDIT:;
#BANNER:;
#BACKGROUND:;
#LYRICSPATH:;
#CDTITLE:;
#MUSIC:Aqua - Roses Are Red (Original Version).ogg;
#OFFSET:0.000000;
#SAMPLESTART:100.059883;
#SAMPLELENGTH:12.000000;
#SELECTABLE:YES;
#BPMS:0.000000=140.000000
;
#STOPS:0.000000=0.650000
;
#BGCHANGES:;
#KEYSOUNDS:;
#ATTACKS:;

//---------------dance-single - ----------------
#NOTES:
     dance-single:
     :
     Hard:
     12:
     0.523183,0.601284,0.188269,0.000000,0.163615,817.000000,775.000000,42.000000,0.000000,0.000000,0.000000,0.523183,0.601284,0.188269,0.000000,0.163615,817.000000,775.000000,42.000000,0.000000,0.000000,0.000000:
// measure 0
0000
0000
0000
0000
,  // measure 1
0000
0000
0000
0000
0000
0000
0000
0100
,  // measure 2
0000
0000
0001
0010
0100
0000
0100
0000
,  // measure 3
1000
0000
0001
0100
1000
0000
0000
0000
,  // measure 4
0001
0100
0100
0010
,  // measure 5
0001
1000
0001
0100
1000
0000
0000
0000
,  // measure 6
0010
0000
0100
0001
1000
0000
0100
0000
,  // measure 7
0010
0000
0001
0100
1000
0000
0000
0000
,  // measure 8
0010
0000
0001
0100
1000
0010
0100
0000
,  // measure 9
0010
0000
0001
1000
0001
0100
1000
0000
,  // measure 10
0010
0100
0000
0001
1000
0100
0001
0000
,  // measure 11
0000
0100
0000
0010
0001
0100
1000
0000
,  // measure 12
0000
0010
0000
0100
0001
1000
0100
0000
,  // measure 13
0000
0000
0000
0000
,  // measure 14
0000
0010
0000
1000
0001
0100
1000
0000
,  // measure 15
0000
0100
0000
0010
0001
0100
1000
0000
,  // measure 16
0000
0100
0000
0010
0001
0100
1000
0000
,  // measure 17
1001
0010
0001
1000
0001
0000
0100
0000
,  // measure 18
0010
0000
0001
0000
0100
0000
0010
0000
0100
0001
0000
1000
0000
0010
0100
0000
,  // measure 19
0010
0000
0001
0000
0100
0000
0010
0000
0001
0100
0000
0010
0000
0100
0001
0000
,  // measure 20
0010
0000
0001
0000
0100
0000
0010
0000
0100
0010
0000
0001
0000
0100
1000
0000
,  // measure 21
0010
0000
0001
0000
0100
0000
0010
0000
0001
0100
0000
0010
0000
0100
0001
0000
,  // measure 22
1001
0000
0001
0000
0010
0000
0100
0000
0100
0001
0000
0010
0000
0100
0001
0000
,  // measure 23
0010
0000
0001
0000
0100
0000
0010
0000
1000
0100
0000
0001
0000
0010
0100
0000
,  // measure 24
0001
0000
0100
0000
0001
0000
0100
0000
1000
0100
0000
0001
0000
0010
0100
0000
,  // measure 25
0010
0000
0001
0000
0100
0000
0001
0000
0100
0010
0000
0001
0000
0100
1000
0000
,  // measure 26
0010
0000
1000
0001
0100
0000
0010
0000
,  // measure 27
0001
0100
0001
1000
0100
0000
0000
0000
,  // measure 28
0010
0000
0001
0100
1000
0000
0100
0010
,  // measure 29
0001
1000
0001
0100
1000
0000
0000
0000
,  // measure 30
0100
0000
0001
1000
0100
0000
0100
0000
,  // measure 31
0010
0000
0001
1000
0100
0000
0000
0000
,  // measure 32
0001
0100
1000
0010
,  // measure 33
0001
0000
0100
0000
0001
0000
0100
0000
1000
0000
0000
0000
0100
0000
0001
1000
,  // measure 34
0100
0010
0001
0100
0001
0100
0010
0001
,  // measure 35
1000
0001
0100
1000
0001
1000
0001
0100
,  // measure 36
0010
0001
0100
0001
0100
0010
0001
1000
,  // measure 37
0001
0100
0010
0001
0100
0001
0100
1000
,  // measure 38
0110
0100
0010
1000
0100
0000
0001
0100
,  // measure 39
0010
0000
0100
0001
1000
0001
0010
0000
,  // measure 40
0000
0001
0100
0010
0000
0100
1000
0001
,  // measure 41
0100
0001
0110
0000
0110
0000
0101
0000
,  // measure 42
0001
1000
0000
0100
0001
0100
1000
0000
,  // measure 43
0000
0100
0000
0010
0001
0100
1000
0000
,  // measure 44
0000
0100
0000
0010
0001
0100
1000
0000
,  // measure 45
0000
0001
0100
0010
0001
1000
0001
0100
,  // measure 46
1001
0010
0000
0100
0001
1000
0001
0000
,  // measure 47
0000
0100
0000
0010
0001
0100
1000
0000
,  // measure 48
0000
0100
0000
0010
0001
0100
1000
0100
,  // measure 49
0010
0000
0001
1000
0100
0000
0000
0000
,  // measure 50
1000
0000
0100
0000
0001
0000
0010
0000
0100
0001
0000
0010
0000
0100
0001
0000
,  // measure 51
1000
0000
0100
0000
0001
0000
0010
0000
0100
0001
0000
0010
0000
0100
0001
0000
,  // measure 52
0010
0000
0001
0000
0100
0000
0010
0000
0001
0100
0000
0010
0000
0100
0001
0000
,  // measure 53
1000
0000
0100
0000
0001
0000
0010
0000
0100
0001
0000
1000
0000
0100
0001
0000
,  // measure 54
0010
0000
0001
0000
0100
0000
0010
0000
0100
1000
0000
0001
0000
0010
0100
0000
,  // measure 55
0010
0000
0001
0000
0100
0000
0010
0000
1000
0100
0000
0001
0000
0010
0100
0000
,  // measure 56
0010
0000
0001
0000
0100
0000
0010
0000
1000
0100
0000
0001
0000
0010
0100
0000
,  // measure 57
0010
0000
0001
0000
0100
0000
0010
0000
0100
0010
0000
0001
0000
1000
0100
0000
,  // measure 58
0010
0001
0100
0001
1000
0000
0100
0000
,  // measure 59
0100
0010
0001
0100
1000
0000
0000
0000
,  // measure 60
0100
0001
1000
0001
0100
0000
0010
0000
,  // measure 61
0001
0100
0001
0100
1000
0000
0000
0000
,  // measure 62
0100
0000
0001
1000
0100
0000
0001
0000
,  // measure 63
0010
0000
0001
0100
0010
0000
0000
0000
,  // measure 64
0010
0001
0100
0010
,  // measure 65
0001
0100
0001
1000
0100
0000
0000
0010
,  // measure 66
0000
0100
0000
1000
0000
0001
0100
0100
,  // measure 67
0010
0001
0100
0001
0100
1000
0100
0010
,  // measure 68
0001
0100
0010
0001
0100
0001
1000
0100
,  // measure 69
0001
0100
0010
0001
0100
0001
0100
0010
,  // measure 70
1001
0010
0100
0001
0100
0000
0001
0100
,  // measure 71
0010
0000
0001
0100
1000
0010
0001
1000
,  // measure 72
0100
0001
0010
0001
1000
0001
0100
0010
,  // measure 73
1100
0000
0110
0000
0100
0001
0110
0000
,  // measure 74
0000
0100
0000
0001
0010
0100
1000
0000
,  // measure 75
0000
0100
0000
0010
0001
0100
1000
0000
,  // measure 76
0000
0100
0000
0001
1000
0100
0001
0000
,  // measure 77
0000
0100
0010
0001
0100
0001
1000
0100
,  // measure 78
1001
0001
0000
0010
0100
0001
0100
0000
,  // measure 79
0000
0010
0000
0100
0001
0100
1000
0000
,  // measure 80
0000
0010
0000
0100
0001
0100
1000
0000
,  // measure 81
0010
0000
0100
0010
0101
0000
0000
1100
,  // measure 82
0011
0001
0000
0100
0001
0100
1000
0101
,  // measure 83
0000
0110
0000
0100
0001
0100
1000
0101
,  // measure 84
0000
0101
0010
0100
0001
1000
0100
0011
,  // measure 85
0000
0010
0100
0001
0100
0010
0100
1100
,  // measure 86
0101
0001
0000
1000
0100
0001
0100
0011
,  // measure 87
0000
1100
0000
0100
0001
0100
0001
0000
,  // measure 88
0100
0000
0010
0010
0001
0100
1000
0000
,  // measure 89
0010
0000
0100
1000
0001
0100
0010
0000
,  // measure 90
0110
0010
0100
0001
0100
1000
0100
0000
,  // measure 91
0000
0100
0000
0010
,  // measure 92
0000
0001
0010
1000
0001
0100
1000
0000
,  // measure 93
0000
0010
0000
0100
,  // measure 94
0000
0010
0001
1000
0001
0100
1000
0000
,  // measure 95
0000
0100
0000
0001
,  // measure 96
0000
0010
0001
1000
0001
0100
0010
0000
,  // measure 97
0000
0001
0100
0010
0001
1000
0001
0100
,  // measure 98
1000
0000
0001
0000
0100
0000
0010
0000
1000
0100
0000
0001
0000
0010
0100
0000
,  // measure 99
0010
0000
0001
0000
0100
0000
0010
0000
0001
0100
0000
0010
0000
0100
0001
0000
,  // measure 100
0010
0000
0001
0000
0100
0000
0010
0000
1000
0100
0000
0001
0000
0010
0100
0000
,  // measure 101
0010
0000
0001
0000
0100
0000
0010
0000
1000
0100
0000
0001
0000
0010
0100
0000
,  // measure 102
0010
0000
0001
0000
0100
0000
0010
0000
1000
0100
0000
0001
0000
0010
0100
0000
,  // measure 103
0100
0000
0010
0000
1000
0000
0001
0000
0100
0001
0000
0010
0000
0100
0001
0000
,  // measure 104
1000
0000
0001
0000
0100
0000
0010
0000
0001
0100
0000
0010
0000
0001
0100
0000
,  // measure 105
0010
0000
0001
0000
0100
0000
0010
0000
0001
0100
0000
0010
0000
0001
0100
0000
,  // measure 106
0100
0010
0000
1000
0001
0100
1000
0000
,  // measure 107
0000
0010
0000
0100
0001
0100
1000
0000
,  // measure 108
0000
0100
0000
0010
0001
0100
1000
0000
,  // measure 109
0000
0100
0010
0001
1000
0001
0100
1000
,  // measure 110
0101
0001
0000
0100
0001
1000
0001
0000
,  // measure 111
0000
0100
0000
0010
0001
0100
1000
0000
,  // measure 112
0000
0100
0000
0010
0001
1000
0001
0100
,  // measure 113
0010
0000
0001
1000
0100
0000
0000
0110
,  // measure 114
0110
0101
0000
0100
0001
0100
0010
1001
,  // measure 115
0000
0101
0100
0001
0100
0001
0000
0110
,  // measure 116
0000
0101
0000
0010
0001
0100
1000
0000
,  // measure 117
0000
0010
0001
1000
0001
0100
0010
1001
,  // measure 118
0101
0110
0000
0010
0001
0100
1000
0101
,  // measure 119
0000
0101
1000
0100
0001
0100
0001
1001
,  // measure 120
0000
0101
0000
0100
0001
0100
0001
1000
,  // measure 121
0100
0000
0001
0100
0110
0000
0000
0000
,  // measure 122
0110
0000
0000
0000
,  // measure 123
0010
0000
0001
0000
,  // measure 124
1000
0000
0000
0000
,  // measure 125
0100
0000
0010
0000
,  // measure 126
0010
0000
0001
1000
0100
0010
0100
0000
,  // measure 127
0010
0000
0001
1000
0001
0100
1000
0000
;
