#VERSION:0.83;
#TITLE:rockstar shit;
#SUBTITLE:;
#ARTIST:Blind.See & Bryoza;
#TITLETRANSLIT:;
#SUBTITLETRANSLIT:;
#ARTISTTRANSLIT:;
#GENRE:;
#ORIGIN:;
#CREDIT:;
#BANNER:;
#BACKGROUND:;
#PREVIEWVID:;
#JACKET:;
#CDIMAGE:;
#DISCIMAGE:;
#LYRICSPATH:;
#CDTITLE:;
#MUSIC:BLIND.SEE & BROYZA - Rockstar Shit (Lyrics) i been on my rockstar sh.ogg;
#OFFSET:0.000000;
#SAMPLESTART:100.059883;
#SAMPLELENGTH:12.000000;
#SELECTABLE:YES;
#BPMS:0.000=140.000;
#STOPS:;
#DELAYS:;
#WARPS:;
#TIMESIGNATURES:0.000=4=4;
#TICKCOUNTS:0.000=4;
#COMBOS:0.000=1;
#SPEEDS:0.000=1.000=0.000=0;
#SCROLLS:0.000=1.000;
#FAKES:;
#LABELS:0.000=Song Start;
#BGCHANGES:;
#KEYSOUNDS:;
#ATTACKS:
;

//---------------dance-single - ----------------
#NOTEDATA:;
#CHARTNAME:;
#STEPSTYPE:dance-single;
#DESCRIPTION:;
#CHARTSTYLE:;
#DIFFICULTY:Hard;
#METER:10;
#RADARVALUES:0.449519,0.537710,0.736773,0.138145,0.138145,410.000000,314.000000,96.000000,18.000000,0.000000,0.000000,0.000000,0.000000,0.000000,0.449519,0.537710,0.736773,0.138145,0.138145,410.000000,314.000000,96.000000,18.000000,0.000000,0.000000,0.000000,0.000000,0.000000;
#CREDIT:;
#NOTES:
// measure 0
0000
0000
0000
0000
,  // measure 1
0000
0000
0000
0000
,  // measure 2
0010
0000
0000
0000
0000
0000
0000
0100
,  // measure 3
0100
0000
0000
0000
,  // measure 4
0010
0000
0000
0000
0000
0000
0000
0100
,  // measure 5
0100
0000
0000
0000
,  // measure 6
0010
0000
0000
0000
0000
0000
0000
0001
,  // measure 7
0001
0000
0000
0000
,  // measure 8
0010
0000
0000
0000
0000
0000
0000
0110
,  // measure 9
0110
0110
0110
0110
,  // measure 10
1000
0000
0000
0000
0000
0001
0100
0010
,  // measure 11
0001
1000
0001
0100
1000
0000
1001
0000
,  // measure 12
0110
0000
0000
0000
0000
0000
0100
0010
,  // measure 13
0001
0100
0001
0100
1000
0000
0000
0000
,  // measure 14
0202
0000
0000
0000
0303
0101
0101
0100
,  // measure 15
0010
0100
0001
0100
1000
0000
0001
0000
,  // measure 16
0110
0000
0000
0000
0000
0000
0100
0010
,  // measure 17
0110
0000
0001
0010
1100
0000
0110
0000
,  // measure 18
0202
0000
0303
0000
0100
0001
0010
0100
,  // measure 19
0101
0000
0000
0000
0101
0000
0000
0000
0101
0000
0000
0010
0000
0001
0000
0000
,  // measure 20
0110
0000
0000
0000
0000
0000
0000
0000
1010
0000
0000
0001
0000
0010
0000
0000
,  // measure 21
0110
0000
0000
0100
0000
0010
0000
0000
0110
0000
0000
0001
0000
0010
0000
0000
,  // measure 22
0101
0000
1001
0000
1000
0001
0100
0001
,  // measure 23
0100
0000
0100
0010
2002
0000
3003
0000
,  // measure 24
0101
0000
0101
0000
0001
0100
0001
0100
,  // measure 25
1100
0000
0000
0000
0101
0000
0000
0000
0101
0000
0000
0001
0100
0010
0000
0000
,  // measure 26
1100
0000
0000
0000
0000
0000
0010
0000
0100
0001
0000
0010
0000
0000
0100
0000
,  // measure 27
1001
0000
0110
0000
0000
0000
1000
0100
,  // measure 28
0011
0010
0000
0000
0100
0010
0001
0100
,  // measure 29
1000
0000
0001
0000
0100
0000
0010
0000
1000
0100
0000
0001
0000
0000
0010
0000
,  // measure 30
0110
0010
0100
0001
0100
0100
0010
0001
,  // measure 31
0100
0000
0001
0000
0100
0000
0010
0000
1000
0100
0000
0001
0000
0000
0010
0000
,  // measure 32
0001
0100
0000
0000
1000
0001
0100
0010
,  // measure 33
0110
0100
0010
0001
0100
0001
0100
0010
,  // measure 34
2200
0000
0000
0000
3300
0000
1000
0001
,  // measure 35
0100
0000
0010
0000
0101
0000
0000
0000
1001
0000
0000
0010
0000
0100
0000
0000
,  // measure 36
0101
0000
0010
0001
0110
0000
0001
0100
,  // measure 37
1000
0000
0001
0000
0101
0000
0000
0000
0110
0000
0000
0100
0000
0010
0000
0000
,  // measure 38
0101
0000
1001
0000
0001
0100
0001
0100
,  // measure 39
1000
0000
0010
0000
0101
0000
0000
0000
1001
0000
0000
0010
0000
0100
0000
0000
,  // measure 40
0110
0000
0010
0001
0100
0001
0100
0010
,  // measure 41
0001
1000
0001
0100
1000
0000
1001
0000
,  // measure 42
1001
0000
0000
0000
0000
0001
0100
0010
,  // measure 43
0001
0100
0001
0100
1000
0000
0110
0000
,  // measure 44
0101
0000
0000
0000
0000
0000
0100
0010
,  // measure 45
0001
1000
0001
0100
1000
0000
0010
0100
,  // measure 46
0220
0000
0000
0000
0330
0110
0110
0010
,  // measure 47
0100
0100
0001
0100
1000
0000
0101
0000
,  // measure 48
0101
0000
0000
0000
0000
0000
0001
0100
,  // measure 49
0110
0000
0001
0100
1100
0000
0110
0000
,  // measure 50
2002
0000
3003
0000
0010
0001
0100
0010
,  // measure 51
0101
0000
0000
0000
0110
0000
0000
0000
0011
0000
0000
0100
0000
0010
0000
0000
,  // measure 52
0110
0000
0000
0000
0000
0000
0000
0000
1100
0000
0000
0100
0000
0010
0000
0000
,  // measure 53
0101
0000
0000
0100
0000
0010
0000
0000
0101
0000
0000
0100
0000
0010
0000
0000
,  // measure 54
0110
0000
0110
0000
0010
0001
0100
0001
,  // measure 55
0100
0000
0100
0010
2002
0000
3003
0000
,  // measure 56
0101
0000
0101
0000
0010
0100
0001
1000
,  // measure 57
0101
0000
0000
0000
0110
0000
0000
0000
0101
0000
0000
0010
0100
0001
0000
0000
,  // measure 58
0220
0000
0000
0000
,  // measure 59
0000
0000
0330
0110
,  // measure 60
1001
0000
0000
0000
0000
0000
0000
0100
,  // measure 61
0100
0110
0000
0110
,  // measure 62
2002
0000
0000
0000
3003
1001
1001
0001
,  // measure 63
0001
0000
0000
0000
,  // measure 64
0010
0000
0000
0000
0000
0000
0000
0010
,  // measure 65
0110
0000
0000
0000
0110
0000
0000
0000
0011
0000
0000
0100
0010
0001
0000
0000
,  // measure 66
0110
0000
1100
0000
0000
0000
0000
0100
,  // measure 67
0100
0000
0000
0000
,  // measure 68
0110
0000
0000
0000
0000
0000
0000
0010
,  // measure 69
0010
0000
0000
0000
0000
0000
0000
0000
1000
0100
0000
0000
1000
0100
0000
0000
,  // measure 70
1001
0000
0000
0000
0000
0000
0000
0100
,  // measure 71
0100
0110
0000
0000
,  // measure 72
0010
0000
0000
0000
0000
0000
0000
0001
,  // measure 73
1001
1001
1001
1001
;
