#TITLE:rock music;
#SUBTITLE:;
#ARTIST:Charli XCX;
#TITLETRANSLIT:;
#SUBTITLETRANSLIT:;
#ARTISTTRANSLIT:;
#GENRE:;
#CREDIT:;
#BANNER:;
#BACKGROUND:;
#LYRICSPATH:;
#CDTITLE:;
#MUSIC:Charli xcx - Rock Music (Lyrics).ogg;
#OFFSET:0.000000;
#SAMPLESTART:100.059883;
#SAMPLELENGTH:12.000000;
#SELECTABLE:YES;
#BPMS:0.000000=120.000000
;
#STOPS:0.000000=0.300000
;
#BGCHANGES:;
#KEYSOUNDS:;
#ATTACKS:;

//---------------dance-single - ----------------
#NOTES:
     dance-single:
     :
     Hard:
     12:
     0.479478,0.628556,0.008673,0.026018,0.173455,387.000000,386.000000,1.000000,3.000000,0.000000,0.000000,0.479478,0.628556,0.008673,0.026018,0.173455,387.000000,386.000000,1.000000,3.000000,0.000000,0.000000:
// measure 0
0000
0000
0000
0000
,  // measure 1
0000
0000
0000
0000
,  // measure 2
0000
0000
0000
0000
,  // measure 3
0000
0000
0000
0000
0010
0001
0100
0000
,  // measure 4
1000
0010
0000
0100
0001
0000
1000
0100
,  // measure 5
0000
0100
0010
0000
0100
0010
0100
0001
,  // measure 6
0010
0001
0000
0100
1000
0000
0010
0100
,  // measure 7
0000
0100
0010
0000
0100
0001
0100
0000
,  // measure 8
0010
0001
0000
1000
0100
0010
0100
0001
,  // measure 9
1000
0100
0001
0010
0001
0100
0001
0100
,  // measure 10
1000
0100
0010
0001
0100
0001
0100
0010
,  // measure 11
0001
0100
0001
0100
0010
0100
0001
0000
,  // measure 12
0100
0010
0000
0001
0100
0000
0010
0001
,  // measure 13
0000
0100
1000
0100
0001
0010
0010
0001
,  // measure 14
0100
1000
0000
0001
0100
0000
0100
0010
,  // measure 15
0000
0001
0100
0010
0001
0100
0001
0100
,  // measure 16
1000
0010
0000
0001
0100
0000
0100
0010
,  // measure 17
0000
0001
0100
0010
0001
1000
0001
0100
,  // measure 18
1000
0001
1000
0001
0100
0010
0001
0010
,  // measure 19
0100
0010
0001
1000
0001
0100
2000
0000
,  // measure 20
0100
0100
0100
0100
,  // measure 21
0100
0000
3100
0000
0100
0001
0100
0000
,  // measure 22
0010
0100
0001
0000
0100
0001
1000
0001
0010
0000
0100
0001
0010
0000
0100
0000
,  // measure 23
0010
0001
0100
0000
0010
0100
0001
1000
0100
0000
0010
0100
0001
0000
1000
0000
,  // measure 24
0100
0001
0010
0000
0100
0001
0100
0001
0010
0000
0100
0001
1000
0000
0100
0000
,  // measure 25
0010
0100
0001
0000
1000
0100
0001
0100
0001
0000
0010
0100
0001
0000
1000
0000
,  // measure 26
0110
0100
0000
0100
1000
0000
0001
0100
,  // measure 27
0000
0001
0100
0010
0001
0100
0001
0100
,  // measure 28
1000
0010
0000
0001
0100
0000
0100
0010
,  // measure 29
0000
0100
0010
0001
0100
0001
0100
0001
,  // measure 30
0100
1000
0000
0100
0100
0000
0010
0001
,  // measure 31
0000
0010
0001
0100
0001
0100
0001
1000
,  // measure 32
0100
0001
0010
0001
0100
0010
0001
0100
,  // measure 33
0001
0100
0010
0001
1000
0000
0100
0001
,  // measure 34
0010
0100
0000
0001
0100
0000
0010
0100
,  // measure 35
0000
0010
0001
0100
0010
0001
1000
0001
,  // measure 36
0100
1000
0000
0001
0100
0000
0100
0001
,  // measure 37
0000
0010
0001
0100
0010
0001
1000
0001
,  // measure 38
0100
1000
0100
0010
0100
0010
0001
0100
,  // measure 39
0001
0100
0010
0001
1000
0001
0100
0010
,  // measure 40
0010
0001
0100
1000
0001
0100
0010
0001
,  // measure 41
0100
0010
1000
0001
0100
0001
0020
0000
,  // measure 42
0100
0100
0100
0100
,  // measure 43
0100
0100
0100
0100
,  // measure 44
0100
0100
0100
0100
,  // measure 45
0100
0000
0130
0000
0001
0100
1000
0000
,  // measure 46
0100
0010
0100
0000
0100
0001
0010
0100
0001
0000
1000
0100
0001
0000
0010
0000
,  // measure 47
0100
0001
0010
0000
0100
0001
1000
0100
0001
0000
0010
0100
0001
0000
1000
0000
,  // measure 48
0100
0010
0001
0000
1000
0001
0100
0010
0001
0000
0010
0100
0001
0000
0100
0000
,  // measure 49
0100
0010
0100
0000
0001
0100
0001
0100
0001
0000
0010
0100
0001
0000
1000
0000
,  // measure 50
0100
0001
0100
0000
0001
0010
0100
1000
0100
0000
0010
0100
0001
0000
1000
0000
,  // measure 51
0100
0010
0001
0000
0010
0100
0001
1000
0001
0000
0010
0100
0001
0000
1000
0000
,  // measure 52
0010
1000
0100
0010
0010
0100
0002
0000
,  // measure 53
1000
1000
1000
1000
,  // measure 54
1000
1000
1000
1000
,  // measure 55
1000
1000
1000
1003
;
