#VERSION:0.83;
#TITLE:roc steady;
#SUBTITLE:;
#ARTIST:Megan Thee Stallion & Flo Milli;
#TITLETRANSLIT:;
#SUBTITLETRANSLIT:;
#ARTISTTRANSLIT:;
#GENRE:;
#ORIGIN:;
#CREDIT:;
#BANNER:;
#BACKGROUND:;
#PREVIEWVID:;
#JACKET:;
#CDIMAGE:;
#DISCIMAGE:;
#LYRICSPATH:;
#CDTITLE:;
#MUSIC:Megan Thee Stallion - Roc Steady (feat. Flo Milli) [Official Audio].ogg;
#OFFSET:0.000000;
#SAMPLESTART:100.059883;
#SAMPLELENGTH:12.000000;
#SELECTABLE:YES;
#BPMS:0.000=102.000;
#STOPS:;
#DELAYS:;
#WARPS:;
#TIMESIGNATURES:0.000=4=4;
#TICKCOUNTS:0.000=4;
#COMBOS:0.000=1;
#SPEEDS:0.000=1.000=0.000=0;
#SCROLLS:0.000=1.000;
#FAKES:;
#LABELS:0.000=Song Start;
#BGCHANGES:;
#KEYSOUNDS:;
#ATTACKS:
;

//---------------dance-single - ----------------
#NOTEDATA:;
#CHARTNAME:;
#STEPSTYPE:dance-single;
#DESCRIPTION:;
#CHARTSTYLE:;
#DIFFICULTY:Hard;
#METER:14;
#RADARVALUES:0.650436,0.623803,0.136233,0.021510,0.760036,635.000000,616.000000,19.000000,3.000000,0.000000,0.000000,0.000000,0.000000,0.000000,0.650436,0.623803,0.136233,0.021510,0.760036,635.000000,616.000000,19.000000,3.000000,0.000000,0.000000,0.000000,0.000000,0.000000;
#CREDIT:;
#NOTES:
// measure 0
0000
0000
0000
0000
,  // measure 1
0000
0000
0000
0000
0000
0000
0001
0100
,  // measure 2
0010
0001
0100
0010
0001
0100
0001
0100
0100
0010
1000
0001
0100
0000
0000
0000
,  // measure 3
0100
0000
0001
1000
0100
0000
0010
0001
0100
0010
0100
0001
1000
0000
0100
0000
,  // measure 4
0010
0000
0001
0100
0010
0001
1000
0001
0100
0000
0100
0000
0010
0000
1000
0001
,  // measure 5
0100
0000
0100
0000
0010
0000
1000
0001
0100
0010
0100
0001
0100
0000
0000
0000
,  // measure 6
0010
0000
0000
0000
0000
0000
1000
0000
0100
0010
0000
0000
0010
0000
0001
0100
,  // measure 7
1000
0000
0001
0100
0010
0000
1000
0001
0100
0000
0010
0001
0100
0010
0100
0001
,  // measure 8
1000
0000
0000
0000
0001
0100
0010
0001
1000
0001
0100
0010
0100
0001
1000
0010
,  // measure 9
0100
0000
0001
0000
0100
0010
0001
0100
0010
0000
0001
1000
0100
0010
0000
0001
,  // measure 10
0010
0001
0100
0000
1000
0010
0001
0010
0100
0000
0010
0000
0100
0001
0000
0000
,  // measure 11
0100
0001
0010
0000
0100
0000
0001
0100
0010
0000
1000
0001
0100
0010
0100
0001
,  // measure 12
1000
0000
0100
0010
0001
0000
0001
0100
0010
0000
0100
0010
0100
0001
1000
0000
,  // measure 13
0100
0001
0010
0000
0100
0000
0001
1000
0100
0000
0010
0100
0001
0000
1000
0000
,  // measure 14
0100
0010
0001
0100
0001
0100
0010
0001
1000
0001
0100
0010
0100
0001
1000
0000
,  // measure 15
0100
0001
0010
0000
0100
0000
0010
0000
0001
0000
0100
0000
0001
0100
0010
0000
,  // measure 16
0001
0100
0010
0001
1000
0001
0100
0010
0100
0001
1000
0100
0001
0010
0100
0001
,  // measure 17
1000
0000
0100
0000
0010
0000
1000
0001
0100
0010
0100
0001
0100
0001
0010
0100
,  // measure 18
0001
0000
0000
0000
0000
0000
0001
0000
0100
1000
0010
0000
0100
0001
1000
0100
,  // measure 19
0001
0000
0001
0100
0010
0000
0001
0100
0010
0000
0001
1000
0001
0100
0010
0000
,  // measure 20
0010
0001
0100
0010
0001
0000
0010
0000
0100
0001
0010
0000
1000
0000
0001
0000
,  // measure 21
0100
0000
1000
0001
0100
0100
0010
0001
0100
0000
0010
0000
0001
0010
0100
0001
,  // measure 22
0010
0000
0100
0000
0001
0000
0100
0001
0010
0100
0001
0000
0100
0010
0001
1000
,  // measure 23
0100
0000
0010
0001
0100
0010
0001
1000
0100
0010
0000
0000
0001
0010
0100
0000
,  // measure 24
0001
1000
0100
0001
0010
0000
0100
0001
0010
0100
0010
0000
0100
0010
0001
0100
,  // measure 25
1000
0000
0001
0100
0010
0001
0100
0010
0100
0001
1000
0000
0110
0000
0110
0000
,  // measure 26
0110
0000
0000
0000
0000
0000
1000
0000
0100
0001
0000
0000
1000
0000
0100
0001
,  // measure 27
0010
0000
0001
0100
1000
0000
0010
0001
0100
0000
0100
0010
0100
0010
0001
1000
,  // measure 28
0100
0000
0000
0000
0110
0000
0001
0000
1000
0100
0000
0000
0010
0000
1000
0001
,  // measure 29
0100
0000
0001
0100
0010
0000
0001
1000
0100
0000
0001
0100
0001
1000
0100
0000
,  // measure 30
0110
0000
0000
0000
0110
0000
0001
0000
1000
0100
0010
0000
0100
0001
0010
0100
,  // measure 31
0001
0000
0001
1000
0100
0000
0001
1000
0010
0000
0001
0100
1000
0100
0001
0010
,  // measure 32
0100
0000
0000
0000
0011
0000
0100
0000
1000
0100
0000
0000
0010
0000
0001
1000
,  // measure 33
0100
0000
0001
0100
1000
0000
0001
0100
0010
0000
0001
0100
0001
0100
1000
0001
,  // measure 34
0100
0000
0001
0100
0010
0000
0001
0100
0010
0000
0001
0100
1000
0000
0101
0000
,  // measure 35
0000
0000
0010
0000
1000
0000
0001
0000
0100
0010
0100
0001
0010
0000
0100
0000
,  // measure 36
0010
0001
0100
0000
0010
0000
1000
0001
0100
0010
0001
0000
1000
0000
0001
0000
,  // measure 37
1000
0000
0001
0000
0100
0000
0010
0000
0100
0001
0010
0000
0010
0000
0001
0100
,  // measure 38
1000
0000
0001
0100
0010
0000
0001
0100
0010
0000
0001
1000
0100
0000
0110
0000
,  // measure 39
0000
0000
0100
0010
0001
0100
0010
0010
0100
0001
1000
0010
0100
0000
0001
1000
,  // measure 40
0100
0001
0010
0000
0010
0000
1000
0001
0100
0001
0010
0000
0010
0000
0001
1000
,  // measure 41
0100
0010
0001
0100
1000
0000
0100
0010
0001
0000
0100
0000
1000
0000
0110
0000
,  // measure 42
0101
0000
0000
0000
0000
0000
1000
0000
0100
0001
0000
0000
1001
0000
0010
0100
,  // measure 43
0001
0000
0001
0100
1000
0000
0001
0100
0010
0000
0010
0100
0001
1000
0100
0010
,  // measure 44
0100
0000
0000
0000
0101
0000
0010
0000
0100
0001
0010
0000
1000
0100
0001
0010
,  // measure 45
0100
0000
0001
0100
0010
0000
1000
0100
0001
0000
0010
0100
0001
1000
0001
0000
,  // measure 46
1001
0000
0000
0000
0110
0000
0001
0000
0010
0100
0001
0000
0010
0100
0001
1000
,  // measure 47
0100
0000
0010
0100
0001
0000
0001
0100
1000
0000
0010
0001
0100
0010
0100
0010
,  // measure 48
0100
0000
0000
0000
1001
0000
0100
0000
0001
0010
0100
0000
0001
1000
0010
0100
,  // measure 49
0001
0000
0010
0100
0001
0000
1000
0100
0001
0000
0010
0100
0001
0000
1001
0000
,  // measure 50
0110
0000
0000
0000
0000
0000
0100
0000
0001
0010
0000
0000
0000
0000
1000
0100
,  // measure 51
0001
0000
0100
0010
0100
0000
0001
0100
0010
0000
0100
0010
0001
0100
1000
0010
,  // measure 52
0100
0000
0000
0000
0000
0000
0001
0000
1000
0100
0000
0000
0101
0000
0000
0000
,  // measure 53
0010
0100
0001
1000
0100
0000
0001
0100
0010
0001
0100
0010
0001
1000
0001
0100
,  // measure 54
2000
0000
0000
3000
0100
0000
0100
0100
,  // measure 55
0200
0000
0300
0000
0010
0000
0100
0100
,  // measure 56
0200
0000
0000
0000
0300
0000
0000
0000
0010
0000
0000
0000
0100
0001
0010
0000
,  // measure 57
1000
0100
0001
0010
0100
0000
0010
0001
0100
0010
0001
1000
0001
0100
0001
1000
,  // measure 58
0100
0000
0000
0000
;
