#TITLE:right back;
#SUBTITLE:;
#ARTIST:Karlee Girl;
#TITLETRANSLIT:;
#SUBTITLETRANSLIT:;
#ARTISTTRANSLIT:;
#GENRE:;
#CREDIT:;
#BANNER:;
#BACKGROUND:;
#LYRICSPATH:;
#CDTITLE:;
#MUSIC:KARLEE GIRL - Right Back! (Official Video).ogg;
#OFFSET:0.000000;
#SAMPLESTART:100.059883;
#SAMPLELENGTH:12.000000;
#SELECTABLE:YES;
#BPMS:0.000000=121.000000
,296.000000=60.500000
,328.000000=121.000000
;
#STOPS:0.000000=0.600000
;
#BGCHANGES:0.000=KARLEE GIRL - Right Back! (Official Video).mp4=1.000=0=0=1=====,
99999=-nosongbg-=1.000=0=0=0 // don't automatically add -songbackground-
;
#KEYSOUNDS:;
#ATTACKS:;

//---------------dance-single - ----------------
#NOTES:
     dance-single:
     :
     Hard:
     11:
     0.427922,0.623143,0.426505,0.158699,0.181017,604.000000,518.000000,86.000000,32.000000,0.000000,0.000000,0.427922,0.623143,0.426505,0.158699,0.181017,604.000000,518.000000,86.000000,32.000000,0.000000,0.000000:
// measure 0
0000
0000
0000
0000
,  // measure 1
0000
0000
0000
0000
,  // measure 2
0200
0000
0000
0300
,  // measure 3
0002
0000
0000
0003
,  // measure 4
2000
0000
0000
3000
,  // measure 5
0200
0000
0000
0300
,  // measure 6
0020
0000
0000
0000
0000
0000
0030
0001
,  // measure 7
0020
0000
0000
0000
0000
0000
0030
0100
,  // measure 8
0002
0000
0000
0000
0003
0001
0000
0010
,  // measure 9
0001
0000
0100
0000
0001
0010
0100
0000
,  // measure 10
0020
0000
0000
0000
0030
0100
0001
0100
,  // measure 11
1000
0000
0010
0000
0100
0000
0100
0001
0010
0000
0001
0000
0100
0000
0000
0000
,  // measure 12
0001
0000
0000
0100
0000
0010
0001
0100
,  // measure 13
0001
0000
0100
0000
0010
0000
1000
0100
0001
0000
0010
0000
0100
0000
0000
0000
,  // measure 14
0000
0000
0000
1000
0000
0100
0001
0010
,  // measure 15
0001
0100
0000
0100
0010
0001
0100
0001
,  // measure 16
0100
1000
0000
0200
0300
0000
0010
0000
,  // measure 17
0100
0010
0001
0100
0001
0100
1000
0000
,  // measure 18
0100
0010
0000
0100
0000
0000
0010
0000
0000
0000
0100
0000
0001
0000
0010
0000
,  // measure 19
1000
0000
0100
0000
0001
0010
0100
0001
0100
0000
0010
0000
0001
0000
0000
0000
,  // measure 20
0000
0000
0000
1100
0000
0101
0101
0101
,  // measure 21
0110
0000
0001
1000
0100
0001
0100
0001
0010
0000
0100
0000
1000
0000
0000
0000
,  // measure 22
0100
0010
0000
0001
0000
0000
0100
0000
0000
0000
0010
0000
0001
0000
0100
0000
,  // measure 23
1000
0000
0000
0010
0001
1000
0001
0100
,  // measure 24
0010
0000
0000
0100
0000
0000
0000
0000
,  // measure 25
0000
0000
0100
0000
0001
0000
1000
0100
0001
0010
0100
0000
0100
0000
0000
0000
,  // measure 26
0020
0000
0000
0000
0030
0100
0001
1000
,  // measure 27
0100
0010
0100
0010
0001
0100
0001
0100
,  // measure 28
1000
0000
0000
0100
0000
0000
0000
0000
,  // measure 29
1000
0000
0000
0001
0000
0000
0200
0000
,  // measure 30
0020
0000
0000
0000
0330
0001
1000
0100
,  // measure 31
0001
0010
0100
0010
0001
0100
0001
0100
,  // measure 32
1000
0000
0000
0100
0000
0000
0000
0010
,  // measure 33
0000
0000
0000
0000
0000
0000
0100
0000
0000
0000
0100
0001
1000
0001
0010
0000
,  // measure 34
0001
0000
0000
0000
0000
0000
0100
0000
0000
0000
0010
0100
0001
0100
1000
0000
,  // measure 35
0010
0000
0000
0000
0000
0000
0100
0000
0000
0000
0010
0100
0001
1000
0100
0000
,  // measure 36
0110
0000
0110
0000
0110
0110
0000
0110
,  // measure 37
0000
0000
1001
0000
2002
0000
0000
0000
3003
0000
0010
0100
0001
1000
0001
0000
,  // measure 38
0010
0000
0000
0000
0000
0000
0100
0000
0000
0000
0010
0100
0001
1000
0001
0000
,  // measure 39
0010
0000
0000
0000
0000
0000
0100
0000
0000
0000
0001
0100
0001
0100
1000
0000
,  // measure 40
0110
0000
0110
0000
0110
0110
0000
0110
,  // measure 41
0000
0110
0110
0000
1001
0000
1001
0000
,  // measure 42
0000
0100
0010
0001
0100
0010
1000
0101
,  // measure 43
0000
0010
0001
1000
0001
0100
0010
0101
,  // measure 44
0000
0000
0100
0001
0100
0000
0001
0100
0010
0000
0100
0010
0100
0000
0110
0000
,  // measure 45
0000
0000
0001
0100
1000
0000
0001
0100
0010
0000
0001
0100
0010
0000
0101
0000
,  // measure 46
0000
0100
0010
0100
0001
0100
0010
1001
,  // measure 47
0000
0010
0001
1000
0001
0100
0010
0101
,  // measure 48
0000
0000
0100
0010
0100
0000
0010
0100
0001
0000
1000
0100
0001
0000
0220
0000
,  // measure 49
0000
0000
0000
0000
,  // measure 50
0000
0000
0000
0000
0000
0000
0330
0000
0000
0000
0100
0001
0100
0001
0010
0000
,  // measure 51
0100
0000
0001
1000
0100
0001
0010
0000
0100
0000
0010
0100
0001
0000
0010
0000
,  // measure 52
0220
0000
0000
0000
0330
0000
0110
0110
,  // measure 53
0110
0000
0010
0100
0001
0000
0001
0010
0100
0000
0001
1000
0100
0000
0010
0000
,  // measure 54
0010
0001
0100
0010
0001
0100
1000
0000
,  // measure 55
0010
0100
0010
0001
1000
0001
0100
0000
,  // measure 56
0100
0010
0001
1000
0001
0100
0010
0000
,  // measure 57
0001
0000
1000
0000
0001
0000
0100
0000
0000
0000
0100
0001
1000
0001
0010
0000
,  // measure 58
0010
0000
0000
0000
0000
0000
0010
0000
0000
0000
0100
0001
1000
0100
0001
0000
,  // measure 59
0010
0000
0000
0000
0000
0000
0100
0000
0000
0000
0010
0100
0001
0100
1000
0000
,  // measure 60
1001
0000
1001
0000
1001
0101
0000
0101
,  // measure 61
0000
0000
0110
0000
0110
0000
0000
0000
0000
0000
0010
0100
0001
0100
1000
0000
,  // measure 62
0001
0000
0000
0000
0000
0000
0010
0000
0000
0000
0100
0001
1000
0001
0010
0000
,  // measure 63
0001
0000
0000
0000
0000
0000
0100
0000
0000
0000
0010
0100
0001
0100
0010
0000
,  // measure 64
1001
0000
0101
0000
0101
0101
0000
0110
,  // measure 65
0000
0110
0110
0000
0110
0000
0110
0000
,  // measure 66
0000
0100
0001
1000
0001
0010
0010
0110
,  // measure 67
0000
0100
0010
0001
0100
0010
1000
1001
,  // measure 68
0000
0000
0100
0001
0010
0000
0100
0001
1000
0000
0100
0001
0010
0000
1001
0000
,  // measure 69
0000
0000
0001
0100
1000
0000
0001
0100
0010
0000
0001
0100
0010
0000
1001
0000
,  // measure 70
0000
0010
0001
0100
0001
0100
0010
1001
,  // measure 71
0000
0010
0001
0100
0001
0010
0100
1001
,  // measure 72
0000
0000
0010
0001
0100
0000
0010
0001
0100
0000
0001
0100
0010
0000
0202
0000
,  // measure 73
0000
0000
0000
0303
,  // measure 74
1000
0000
0100
0000
0001
0000
0010
0000
0100
0000
0010
0000
0100
0001
1000
0100
,  // measure 75
0001
0000
0100
0000
0010
0000
0100
0000
0010
0000
0100
0010
0001
0100
1000
0000
,  // measure 76
0010
0000
0000
0000
0100
0000
0000
0000
0001
0000
0000
0000
0010
0000
0000
0000
0000
0000
0100
0000
0000
0000
0000
0000
1001
0000
0000
0000
0000
0000
1001
0000
0000
0000
0000
0000
0010
0000
0000
0100
0000
0000
0001
0000
0000
0000
0000
0000
,  // measure 77
0010
0000
0100
0000
0010
0001
0010
0100
0001
0000
0100
0000
0010
0000
1001
0000
,  // measure 78
0100
0000
0110
0000
0100
0000
0110
0000
0010
0000
1001
0000
0010
0010
0010
0000
,  // measure 79
0001
1001
0100
0101
0001
0101
0010
1001
,  // measure 80
0101
0101
0010
0110
0010
0101
0110
0110
,  // measure 81
0001
0101
0010
1001
0100
0011
0100
0011
,  // measure 82
1001
0000
0000
0202
0000
0000
0000
0000
,  // measure 83
0000
0000
0303
2200
0000
0000
0000
0000
,  // measure 84
0000
0000
3300
0220
0000
0000
0000
0000
,  // measure 85
0330
0010
0100
0001
1000
0001
0010
0000
,  // measure 86
0000
0000
0000
2002
0000
0000
0000
0000
,  // measure 87
0000
0000
3003
0202
0000
0000
0000
0000
,  // measure 88
0000
0303
0000
2200
0000
0000
3300
0000
,  // measure 89
0110
1001
0101
0110
;
