#TITLE:rewind;
#SUBTITLE:;
#ARTIST:Wonder Girls;
#TITLETRANSLIT:;
#SUBTITLETRANSLIT:;
#ARTISTTRANSLIT:;
#GENRE:;
#CREDIT:;
#BANNER:;
#BACKGROUND:;
#LYRICSPATH:;
#CDTITLE:;
#MUSIC:Rewind.ogg;
#OFFSET:0.000000;
#SAMPLESTART:100.059883;
#SAMPLELENGTH:12.000000;
#SELECTABLE:YES;
#BPMS:0.000000=105.000000
;
#STOPS:0.000000=0.700000
;
#BGCHANGES:;
#KEYSOUNDS:;
#ATTACKS:;

//---------------dance-single - ----------------
#NOTES:
     dance-single:
     :
     Hard:
     11:
     0.322439,0.629768,0.121751,0.140482,0.297353,482.000000,456.000000,26.000000,30.000000,0.000000,0.000000,0.322439,0.629768,0.121751,0.140482,0.297353,482.000000,456.000000,26.000000,30.000000,0.000000,0.000000:
// measure 0
0000
0000
0000
0000
,  // measure 1
0000
0000
0000
0000
,  // measure 2
0000
0000
0000
0000
,  // measure 3
0000
0000
0000
0000
,  // measure 4
0100
0010
0001
0100
0010
0000
0000
0001
,  // measure 5
0100
0001
0100
0000
0000
1000
0000
0000
,  // measure 6
0001
0100
0001
0100
1000
0000
0000
0010
,  // measure 7
0100
0001
1000
0000
0000
0100
0000
0000
,  // measure 8
0000
0000
0000
0000
0000
0001
0100
1000
,  // measure 9
0000
0000
0010
0000
0100
0000
0100
0001
0000
0000
0010
0000
0000
0000
0000
0000
,  // measure 10
0000
0000
0000
0000
0000
0000
1000
0100
0001
0000
0010
0000
0100
0000
0001
1000
,  // measure 11
0000
0100
0000
0000
0000
0000
0000
0000
0000
0000
0000
0000
0000
0000
0000
0000
,  // measure 12
0000
0000
0000
0000
0000
0001
0100
1000
,  // measure 13
0000
0000
0100
0000
0010
0000
1000
0100
0000
0000
0000
0000
0000
0000
0100
0001
,  // measure 14
1000
0000
0000
0000
0100
0000
0010
0100
0000
0001
0000
0000
0000
0000
0001
0100
,  // measure 15
1000
0000
0000
0010
0000
0000
0100
0000
0000
0010
0100
0000
0000
0000
0000
0000
,  // measure 16
0101
0000
0000
0101
0101
0000
0000
1001
,  // measure 17
1001
0000
0000
1001
0000
0001
0000
0101
,  // measure 18
0001
0000
0000
0010
0000
0000
0100
0001
0010
0000
1000
0100
0000
0010
0000
0000
,  // measure 19
0010
0000
0000
0000
0100
0000
0000
0001
0100
0000
0010
0100
0000
0001
0000
1000
,  // measure 20
0100
0000
0000
0110
0110
0000
0000
1001
,  // measure 21
1001
0000
0000
0101
0000
0001
0000
1001
,  // measure 22
0001
0000
0000
0010
0000
0000
0100
0000
0010
0000
0100
0000
0001
0000
1000
0000
,  // measure 23
0100
0000
0000
0000
0100
0000
0000
0000
0010
0000
0100
0000
0100
0001
1000
0000
,  // measure 24
0200
0000
0300
0010
,  // measure 25
0020
0000
0030
1000
,  // measure 26
2000
0000
0000
0000
3000
0000
0100
0001
0010
0000
0100
0001
0000
0010
0000
0010
,  // measure 27
0001
0000
0010
0100
0001
0000
1000
0000
0100
0010
0000
0100
0010
0001
0000
1000
,  // measure 28
0200
0000
0300
0010
,  // measure 29
0020
0000
0030
1000
,  // measure 30
2000
0000
0000
0000
3000
0000
0100
0001
0010
0000
0100
0001
0000
0010
0000
1000
,  // measure 31
0001
0000
0100
0010
0100
0000
0010
0000
0001
0000
0100
0000
0001
0000
0100
0000
,  // measure 32
2000
0000
0000
3000
,  // measure 33
0200
0000
0000
0300
,  // measure 34
0010
0000
0000
0001
0000
0000
0100
0000
0010
0000
0000
0000
0000
0000
1000
0100
,  // measure 35
0001
0000
0010
0100
0000
0010
0001
0000
0010
0100
0010
0000
0100
0000
0000
0000
,  // measure 36
0000
0000
0000
0000
0000
0001
0100
1000
,  // measure 37
0000
0000
0100
0000
0010
0000
0100
0001
0000
0010
0000
0000
0000
0000
0000
0000
,  // measure 38
0000
0000
0000
0000
0000
0000
0010
0000
0001
0000
0100
0000
0010
0000
1000
0100
,  // measure 39
0000
0001
0000
0000
0000
0000
0000
0000
0000
0000
0000
0000
0000
0000
0000
0000
,  // measure 40
0000
0000
0000
0000
0000
0001
0100
1000
,  // measure 41
0000
0000
0100
0000
0010
0000
0100
0001
0000
0000
0000
0000
0000
0000
0100
0001
,  // measure 42
0010
0000
0000
0000
0100
0000
0010
0100
0000
0001
0000
0000
0000
0000
1000
0000
,  // measure 43
0100
0000
0000
0001
0000
0000
0100
0000
0000
0010
0000
0000
0000
0000
0000
0000
,  // measure 44
1001
0000
0000
0101
0101
0000
0000
1001
,  // measure 45
1001
0000
0000
0110
0000
0001
0000
1001
,  // measure 46
0000
0000
0000
0000
0000
0000
0100
0001
0010
0000
0001
0000
1000
0000
0100
0000
,  // measure 47
0000
0000
0000
0000
0000
0000
0000
0100
0001
0000
1000
0100
0000
0001
0000
0010
,  // measure 48
0000
0000
0000
0101
0101
0000
0000
1001
,  // measure 49
1001
0000
0000
0110
0000
0100
0000
0101
,  // measure 50
0000
0000
0000
0000
0010
0100
0001
1000
,  // measure 51
0100
0010
0100
0010
,  // measure 52
0200
0000
0300
1000
,  // measure 53
2000
0000
3000
0100
,  // measure 54
0200
0000
0000
0000
0300
0000
0001
1000
0100
0000
0001
0100
0000
0010
0000
0100
,  // measure 55
0001
0000
0010
0000
1000
0000
0001
0000
0100
0000
0010
0100
0010
0001
0000
0010
,  // measure 56
0200
0000
0300
0010
,  // measure 57
0020
0000
0030
0100
,  // measure 58
0200
0000
0000
0000
0300
0000
0010
0000
0100
0000
0001
1000
0000
0100
0000
0010
,  // measure 59
0100
0000
0001
1000
0100
0000
0001
0000
0010
0000
0000
0000
1000
0000
0100
0000
,  // measure 60
0002
0000
0000
0003
,  // measure 61
0200
0000
0000
0300
,  // measure 62
2000
0000
0000
0000
,  // measure 63
0000
0000
0000
3000
,  // measure 64
0000
0000
0100
0001
0100
0001
0000
0000
0100
0000
0010
0100
0001
1000
0000
0100
,  // measure 65
0000
0000
0100
0001
0010
0000
0100
0000
0010
0000
0100
0001
0010
0100
0000
0001
,  // measure 66
0010
0000
0100
0000
1000
0010
0001
0100
1000
0010
0100
0001
1000
0001
0010
0000
,  // measure 67
0010
0000
0001
0100
1000
0000
0010
0100
0001
0010
0000
0100
0100
0000
0010
0000
,  // measure 68
0000
0000
0001
0000
0100
0000
0010
0000
0000
0000
0100
0001
0010
0000
0100
0000
,  // measure 69
0000
0000
1000
0000
0100
0001
0100
0001
1000
0001
0010
0100
0000
0001
0000
0000
,  // measure 70
0010
0000
0001
0000
0100
0000
0010
0100
0001
0000
1000
0100
0001
0000
0100
0000
,  // measure 71
0010
0000
1000
0001
0100
0000
0010
0001
0100
0000
0010
0100
0001
0000
0000
0000
,  // measure 72
0100
0000
0100
0010
0000
0000
1000
0100
0001
0000
0010
0000
0100
0010
0100
0000
,  // measure 73
0000
0000
0100
0010
0000
0000
0001
0100
0010
0000
1000
0100
0001
0100
0001
0000
,  // measure 74
0100
0010
0100
0000
0100
0000
0010
0100
0001
1000
0100
0001
0000
0000
0010
0100
,  // measure 75
0001
0100
0010
1000
0100
0001
0100
0010
0001
1000
0001
0100
0010
0100
0001
1000
,  // measure 76
0002
0000
0003
0001
,  // measure 77
0002
0000
0003
0010
,  // measure 78
0020
0000
0000
0000
0030
0000
0001
0100
1000
0000
0001
0010
0000
0100
0000
0001
,  // measure 79
0010
0000
0100
0000
1000
0000
0010
0000
0001
0000
1000
0100
0000
0010
0000
0100
,  // measure 80
0002
0000
0003
1000
,  // measure 81
2000
0000
3000
0100
,  // measure 82
0200
0000
0000
0000
0300
0000
0100
0000
0001
0000
0010
0100
0000
0001
0000
1000
,  // measure 83
0000
0000
0100
0001
0010
0000
0100
0001
0010
0000
0000
0000
0100
0000
0010
0000
,  // measure 84
0200
0000
0000
0300
,  // measure 85
2000
0000
0000
3000
,  // measure 86
0200
0000
0000
0000
,  // measure 87
0000
0000
0000
0300
,  // measure 88
0002
0000
0000
0003
,  // measure 89
0020
0000
0000
0030
,  // measure 90
0200
0000
0000
0000
0000
0000
0300
0100
,  // measure 91
0001
1000
0002
0000
0000
0000
0000
0000
,  // measure 92
0000
0000
0000
0003
;
