#TITLE:relevant;
#SUBTITLE:;
#ARTIST:Lil Uzi Vert;
#TITLETRANSLIT:;
#SUBTITLETRANSLIT:;
#ARTISTTRANSLIT:;
#GENRE:;
#CREDIT:;
#BANNER:;
#BACKGROUND:;
#LYRICSPATH:;
#CDTITLE:;
#MUSIC:Lil Uzi Vert - Relevant - [Official Music Video].ogg;
#OFFSET:0.000000;
#SAMPLESTART:100.059883;
#SAMPLELENGTH:12.000000;
#SELECTABLE:YES;
#BPMS:0.000000=70.500000
;
#STOPS:32.000000=3.400000
;
#BGCHANGES:0.000=Lil Uzi Vert - Relevant - [Official Music Video].mp4=1.000=0=0=1=====,
99999=-nosongbg-=1.000=0=0=0 // don't automatically add -songbackground-
;
#KEYSOUNDS:;
#ATTACKS:;

//---------------dance-single - ----------------
#NOTES:
     dance-single:
     :
     Hard:
     12:
     0.673876,0.655475,0.118323,0.000000,1.384375,598.000000,583.000000,15.000000,0.000000,0.000000,0.000000,0.673876,0.655475,0.118323,0.000000,1.384375,598.000000,583.000000,15.000000,0.000000,0.000000,0.000000:
// measure 0
0000
0000
0000
0000
,  // measure 1
0000
0000
0000
0000
,  // measure 2
1000
0100
0001
1000
0001
0000
0100
0001
0100
1000
0100
0000
0001
1000
0001
0100
1000
0100
0010
0001
1000
0001
0100
0000
,  // measure 3
1000
0100
0001
1000
0001
0010
0100
0010
0001
1000
0001
0100
1000
0100
0010
0100
0001
0100
0010
0001
1000
0001
0100
1000
,  // measure 4
0001
1000
0001
0100
1000
0000
0010
0100
0001
0100
1000
0000
0010
0100
0001
0100
1000
0000
0010
0100
0001
0100
1000
0000
,  // measure 5
0010
0100
0001
0100
1000
0000
0100
0001
0100
1000
0010
0000
0010
0100
0001
0100
1000
0000
0010
0100
0001
0100
1000
0000
,  // measure 6
0010
0100
0001
0100
1000
0000
0010
0100
0001
0100
1000
0000
0001
0010
0100
0001
1000
0001
0010
0100
0010
0001
0100
0000
,  // measure 7
1000
0010
0100
0001
0100
0010
0100
0010
0100
0001
0100
1000
0100
0010
0001
0100
0010
0001
0100
0010
0001
1000
0001
0100
,  // measure 8
1000
0000
0000
0000
0000
0001
0010
0000
0100
0001
0000
1000
0100
0010
0000
0000
0000
0001
1000
0001
0100
1000
0000
0100
,  // measure 9
0001
1000
0000
0100
0001
1000
0100
0000
0000
0010
0100
0001
1000
0100
0000
0000
0000
0100
0010
0001
1000
0001
0100
0001
,  // measure 10
1000
0100
0000
0000
0000
0010
0001
0100
0010
0001
1000
0001
0100
1000
0000
0000
0010
0100
0001
0100
0010
0001
1000
0001
,  // measure 11
0100
1000
0000
0000
0000
0100
0010
0001
1000
0001
0100
0001
1000
0000
0100
0010
0000
0001
0100
0010
0001
1000
0001
0100
,  // measure 12
1000
0000
0001
0100
0000
0100
0010
0100
0010
0001
1000
0001
0100
1000
0000
0010
0100
0000
0100
0010
0001
1000
0001
0100
,  // measure 13
1000
0001
0000
0000
0000
0010
0100
0010
0001
1000
0001
0100
1000
0010
0100
0001
0000
0100
0010
0100
0010
0001
0100
0001
,  // measure 14
1000
0100
0010
0100
0000
0000
0000
0000
0000
1000
0100
0001
1000
0000
0000
1000
0001
0100
1000
0000
0000
0001
1000
0001
,  // measure 15
0100
1000
0000
0000
0000
0000
0000
0001
0100
0000
0010
0001
0100
0000
1000
0100
0001
0100
0001
0000
0010
0001
1000
0001
,  // measure 16
0100
1000
0000
0000
0000
0000
0000
0000
0000
0100
0001
1000
0100
0000
0001
0010
0100
0001
1000
0000
0000
0010
0001
1000
,  // measure 17
0001
0100
1000
0010
0000
0000
0000
0000
0010
0100
0001
1000
0001
0000
0100
0010
0001
0100
1000
0000
0100
0010
0001
1000
,  // measure 18
0001
0100
1000
0000
0000
0000
0000
0000
0010
0001
0100
0010
0001
0100
1000
0000
0010
0001
0100
0001
0100
0010
0001
1000
,  // measure 19
0001
0100
1000
0000
0010
0001
0100
0001
0100
0010
0001
1000
0001
0100
0100
0010
0001
1000
0001
0100
0010
0001
1000
0001
,  // measure 20
0100
0001
1000
0100
0001
0010
0100
0001
0100
0001
0100
0001
0100
0001
0100
0010
0001
1000
0001
0100
0010
0001
0100
0001
,  // measure 21
0100
0010
0001
1000
0001
0100
0010
0001
1000
0001
0100
0010
0001
1000
0001
0100
0010
0001
0100
0001
0100
0010
0001
1000
,  // measure 22
0001
0100
0010
0001
0100
0001
0100
0010
0001
1000
0001
0100
0010
0001
1000
0001
0100
0010
0001
1000
0001
0100
0010
0001
,  // measure 23
1000
0001
0100
1000
0000
0000
0100
0000
0000
0110
0000
0000
1000
0000
0000
1001
0000
0000
0100
0000
0000
0101
0000
0000
,  // measure 24
1000
1001
0100
0101
1000
1001
0100
0101
,  // measure 25
0001
1001
0100
0101
1000
1001
0100
0101
,  // measure 26
0010
0000
0110
0000
0010
0000
0101
0000
0000
0000
0000
0001
1000
0100
0001
0000
,  // measure 27
1001
0000
0000
0101
0000
0000
0010
0100
0001
1000
0001
0000
0000
0000
0000
0000
0000
0000
0010
0100
0001
1000
0001
0000
,  // measure 28
0010
0100
0001
1000
0100
0000
0010
0100
0001
1000
0100
0000
0010
1000
0001
0100
1000
0000
0010
0100
0001
0100
1000
0000
,  // measure 29
0010
0100
0001
0100
1000
0000
0010
0100
0001
0100
1000
0000
0100
0010
0100
0001
0100
0010
0001
1000
0001
0100
1000
0000
,  // measure 30
0010
0100
0001
0100
1000
0100
0010
0100
0010
0001
0100
0001
0100
0010
0001
1000
0001
0100
0010
0001
1000
0001
0100
0010
,  // measure 31
0100
1000
0001
0010
0100
0000
0010
0100
0001
0100
1000
0000
0000
0000
0000
0000
0000
0000
0010
0100
0001
1000
0001
0000
,  // measure 32
0100
0001
1000
0001
0010
0000
0010
0001
0100
1000
0010
0000
0010
0100
0001
0100
1000
0000
0010
0100
0001
0100
1000
0000
,  // measure 33
0010
0001
0100
1000
0010
0000
0001
1000
0001
0100
1000
0000
0010
0001
0100
0010
0100
0001
0010
0100
0001
0100
1000
0000
;
