#VERSION:0.83;
#TITLE:regular;
#SUBTITLE:;
#ARTIST:Lil Uzi Vert;
#TITLETRANSLIT:;
#SUBTITLETRANSLIT:;
#ARTISTTRANSLIT:;
#GENRE:;
#ORIGIN:;
#CREDIT:;
#BANNER:;
#BACKGROUND:;
#PREVIEWVID:;
#JACKET:;
#CDIMAGE:;
#DISCIMAGE:;
#LYRICSPATH:;
#CDTITLE:;
#MUSIC:Lil Uzi Vert - Regular - [Official Audio].ogg;
#OFFSET:0.000000;
#SAMPLESTART:100.059883;
#SAMPLELENGTH:12.000000;
#SELECTABLE:YES;
#BPMS:0.000=134.000;
#STOPS:;
#DELAYS:;
#WARPS:;
#TIMESIGNATURES:0.000=4=4;
#TICKCOUNTS:0.000=4;
#COMBOS:0.000=1;
#SPEEDS:0.000=1.000=0.000=0;
#SCROLLS:0.000=1.000;
#FAKES:;
#LABELS:0.000=Song Start;
#BGCHANGES:0.000=Lil Uzi Vert - Regular - [Official Music Video].mp4=1.000=0=0=1=====,
99999=-nosongbg-=1.000=0=0=0 // don't automatically add -songbackground-
;
#KEYSOUNDS:;
#ATTACKS:
;

//---------------dance-single - ----------------
#NOTEDATA:;
#CHARTNAME:;
#STEPSTYPE:dance-single;
#DESCRIPTION:;
#CHARTSTYLE:;
#DIFFICULTY:Hard;
#METER:12;
#RADARVALUES:0.512364,0.597956,0.149723,0.115695,1.010630,527.000000,505.000000,22.000000,17.000000,0.000000,0.000000,0.000000,0.000000,0.000000,0.512364,0.597956,0.149723,0.115695,1.010630,527.000000,505.000000,22.000000,17.000000,0.000000,0.000000,0.000000,0.000000,0.000000;
#CREDIT:;
#NOTES:
// measure 0
0000
0000
0000
0000
,  // measure 1
0000
0000
0000
0000
,  // measure 2
0000
0000
0000
0000
,  // measure 3
0000
0000
0000
0000
,  // measure 4
0000
0000
0000
0000
,  // measure 5
0000
0000
0000
0000
,  // measure 6
0000
0000
0000
0000
,  // measure 7
0000
0000
0000
0000
,  // measure 8
0000
0000
0000
0000
,  // measure 9
1100
0000
0000
0100
0001
1000
0001
0010
0000
0000
0000
0000
,  // measure 10
1001
0000
0000
0001
1000
0001
0100
1000
0000
0000
0000
0000
,  // measure 11
1001
0000
0010
0001
1000
0001
0100
1000
0000
0100
0001
1000
,  // measure 12
0001
0000
0000
0010
0001
1000
0100
0010
0000
0000
0000
0000
,  // measure 13
1001
0000
0000
0010
0100
0001
1000
0001
0000
0000
0000
0000
,  // measure 14
1001
0000
0000
0000
0000
0000
0100
0000
0001
0000
1000
0000
0001
0000
0010
0000
0000
0000
0000
0000
0000
0010
0000
0000
,  // measure 15
0100
0001
0100
0010
,  // measure 16
2002
0000
3003
0000
0010
0100
0001
0000
,  // measure 17
1000
0000
0000
0100
0001
0000
0000
1000
0001
0000
0000
0010
0100
0000
0000
0000
,  // measure 18
0001
0100
0010
0001
1000
0001
0100
0001
0000
0000
0001
0100
,  // measure 19
0010
0001
1000
0001
0100
0001
1000
0100
0000
0000
0001
1000
,  // measure 20
0001
0100
0010
0001
1000
0001
0100
1000
0000
0000
0001
0100
,  // measure 21
0010
0001
1000
0001
0100
0001
1000
0100
0000
0000
0001
1000
,  // measure 22
0001
0100
0010
0001
1000
0001
0100
1000
0000
0000
0001
0100
,  // measure 23
0010
0001
1000
0001
0100
0001
1000
0100
0000
0010
0000
0000
,  // measure 24
0220
0000
0000
0330
,  // measure 25
1000
0000
0000
0001
0010
0000
0000
0100
0001
0000
0000
1000
0100
0000
0000
0000
,  // measure 26
0001
0100
0010
0001
1000
0001
0100
1000
0000
0000
0001
1000
,  // measure 27
0001
0100
0010
0001
1000
0001
0100
1000
0000
0000
0001
1000
,  // measure 28
0001
0100
0010
0001
1000
0001
0100
1000
0000
0000
0001
1000
,  // measure 29
0001
0100
0010
0001
1000
0001
0100
1000
0000
0000
0001
1000
,  // measure 30
0001
0100
0010
0001
1000
0001
0100
1000
0000
0000
0001
1000
,  // measure 31
0001
0100
0010
0001
1000
0001
0100
1000
0000
1001
0000
0000
,  // measure 32
0220
0000
0000
0000
0000
0000
0330
0000
0000
0000
0100
0001
,  // measure 33
0001
0100
0010
0001
1000
0001
0100
1000
0000
0100
0001
1000
,  // measure 34
0001
0100
0010
0001
1000
0001
0100
1000
0000
0000
0001
1000
,  // measure 35
0001
0100
0010
0001
1000
0001
0100
1000
0000
0000
0010
0001
,  // measure 36
0100
0010
0001
1000
0001
0100
0100
0000
0000
0000
1000
0001
,  // measure 37
0100
0010
0001
1000
0001
0100
1000
0000
0000
0000
0100
0001
,  // measure 38
0100
0010
0001
1000
0001
0100
1000
0000
0000
0000
1000
0001
,  // measure 39
0100
0010
0001
1000
0001
0100
1000
0000
0000
0000
0000
0000
,  // measure 40
0001
0100
0001
0100
0001
1000
0200
0000
0000
0300
0000
0000
,  // measure 41
0100
0010
0001
1000
0001
0100
2000
0000
0000
3000
0000
0000
,  // measure 42
0100
0010
0001
1000
0001
0100
2000
0000
0000
3000
0000
0001
,  // measure 43
0100
0000
0000
0000
0010
0000
0000
0000
0001
0000
0000
0000
1000
0000
0000
0000
0001
0000
0000
0000
0100
0000
0000
0000
1000
0000
0000
0000
0000
0000
0000
0000
0000
0001
0000
0000
0000
0000
0000
0000
0000
0000
0010
0000
0000
0000
0000
0000
,  // measure 44
2002
0000
0000
0000
0000
0000
3003
0000
0000
1000
0100
0001
,  // measure 45
0100
0000
0000
0000
0010
0000
0000
0000
0001
0000
0000
0000
0100
0000
0000
0000
0010
0000
0000
0000
0001
0000
0000
0000
0100
0000
0000
0000
0000
0000
0000
0000
0000
0001
0000
0000
0000
0000
0000
0000
0000
0000
1000
0000
0000
0000
0000
0000
,  // measure 46
0110
0000
0000
0001
1000
0001
0100
0010
0001
1000
0001
0100
,  // measure 47
1000
0000
0000
0000
0000
0000
0000
0000
0000
0000
0000
0000
0001
0000
0000
0000
0100
0000
0000
0000
1000
0000
0000
0000
0010
0000
0000
0100
0000
0000
0001
0000
0000
0000
0000
0000
0000
0000
0000
0000
0000
0000
1000
0000
0000
0000
0000
0000
,  // measure 48
2002
0000
3003
0101
,  // measure 49
1001
0000
0000
0010
0100
0001
1000
0001
0000
0000
0000
0000
,  // measure 50
0110
0000
0000
0001
1000
0100
0001
0010
0000
0000
0000
0000
,  // measure 51
1001
0000
0000
0001
0100
0001
0100
1000
0000
0100
0001
1000
,  // measure 52
0001
0010
0000
0001
0100
0001
1000
0100
0000
0000
0000
0000
,  // measure 53
1001
0000
0000
0001
1000
0001
0100
1000
0000
0000
0000
0000
,  // measure 54
1001
0000
0000
0000
0000
0000
0001
0000
1000
0000
0001
0000
0100
0000
1000
0000
0000
0000
0000
0000
0000
0100
0000
0000
,  // measure 55
0001
1000
0100
0001
,  // measure 56
2002
0000
3003
0000
0100
0001
1000
0000
,  // measure 57
0100
0000
0000
0001
1000
0000
0000
0100
0001
0000
0000
0010
0100
0000
0000
0000
,  // measure 58
0001
0100
0010
0001
1000
0001
0100
1000
0000
0000
0100
1000
,  // measure 59
0001
0100
0010
0001
1000
0001
0100
1000
0000
0000
0100
1000
,  // measure 60
0001
0100
0010
0001
1000
0001
0100
1000
0000
0000
0010
0001
,  // measure 61
1000
0001
0100
1000
0001
0100
1000
0010
0000
0000
0001
1000
,  // measure 62
0001
0100
0010
0001
1000
0001
0100
1000
0000
0000
0010
0001
,  // measure 63
0100
0010
0001
1000
0001
0100
1000
0100
0000
1001
0000
0000
,  // measure 64
0202
0000
0000
0303
,  // measure 65
0010
0000
0000
0100
0001
0000
0000
1000
0100
0000
0000
0001
0010
0000
0000
0000
,  // measure 66
0001
0100
0010
0001
1000
0001
0100
1000
0000
0000
0001
1000
,  // measure 67
0001
0100
0010
0001
1000
0001
0100
1000
0000
0000
0001
1000
,  // measure 68
0001
0100
0010
0001
1000
0001
0100
1000
0000
0000
0001
1000
,  // measure 69
0001
0100
0010
0001
0100
0001
0100
1000
0000
0000
0001
0100
,  // measure 70
0010
0001
0100
0001
0100
0001
1000
0100
0000
0000
0001
1000
,  // measure 71
0001
0100
0010
0001
1000
0001
0100
0010
0000
1001
0000
0000
,  // measure 72
0000
0000
0000
0000
,  // measure 73
0000
0000
0000
0000
,  // measure 74
0000
0000
0000
0000
,  // measure 75
0000
0000
0000
0000
,  // measure 76
0000
0000
0000
0000
,  // measure 77
0000
0000
0000
0000
,  // measure 78
0000
0000
0000
0000
,  // measure 79
1000
0000
0000
0001
0100
0000
0000
0010
0001
0000
0000
0100
1000
0100
0001
0000
;
