#TITLE:rude!;
#SUBTITLE:;
#ARTIST:Hearts2Hearts;
#TITLETRANSLIT:;
#SUBTITLETRANSLIT:;
#ARTISTTRANSLIT:;
#GENRE:;
#CREDIT:;
#BANNER:;
#BACKGROUND:;
#LYRICSPATH:;
#CDTITLE:;
#MUSIC:rude!.ogg;
#OFFSET:0.000000;
#SAMPLESTART:100.059883;
#SAMPLELENGTH:12.000000;
#SELECTABLE:YES;
#BPMS:0.000000=128.000000
;
#STOPS:0.000000=0.650000
;
#BGCHANGES:;
#KEYSOUNDS:;
#ATTACKS:;

//---------------dance-single - ----------------
#NOTES:
     dance-single:
     :
     Hard:
     14:
     0.568497,0.741884,0.249673,0.015286,0.476416,781.000000,732.000000,49.000000,3.000000,0.000000,0.000000,0.568497,0.741884,0.249673,0.015286,0.476416,781.000000,732.000000,49.000000,3.000000,0.000000,0.000000:
// measure 0
0000
0000
0000
0000
,  // measure 1
0000
0000
0000
0000
,  // measure 2
1001
0000
0001
0100
1000
0100
0010
0001
,  // measure 3
0100
0000
0010
0000
0100
0001
0100
0000
,  // measure 4
0101
0000
0000
0000
0000
0000
1000
0000
0100
0000
0010
0100
0001
0000
0010
0000
,  // measure 5
0101
0000
0000
0000
0000
0000
1000
0100
0001
0000
0010
0100
0001
0000
0010
0000
,  // measure 6
0110
0001
0010
0001
0100
0000
0001
0010
,  // measure 7
0100
0000
0000
0000
0010
0000
0000
0000
0100
0000
0010
0000
0100
0001
0000
1000
,  // measure 8
0100
0000
0000
0010
0100
0001
0010
0000
,  // measure 9
0100
0001
1000
0100
0001
0000
0010
0100
0001
0000
0010
0000
0100
0000
0000
0000
,  // measure 10
0001
0100
1000
0001
0100
0000
0010
0100
0001
0000
0010
0000
0100
0000
0000
0000
,  // measure 11
0000
0101
0000
0110
0000
0100
0001
0100
,  // measure 12
0010
0000
0100
0001
1000
0000
0100
0000
0001
0000
0000
0000
0100
0001
1000
0001
,  // measure 13
0010
0000
0100
0001
1000
0000
0100
0000
0010
0000
0000
0000
0001
0100
0001
1000
,  // measure 14
0100
0010
0001
0100
2000
0000
0000
0000
,  // measure 15
3000
0000
1100
0000
0000
0000
0110
0000
0000
0000
0101
0000
0001
0010
0000
0100
,  // measure 16
0001
0000
0000
0000
0100
0001
0000
1000
0000
0000
0100
0000
0010
0000
0000
0000
,  // measure 17
0000
0000
0000
0000
0100
0010
0000
0100
0000
0000
0001
0000
0010
0000
0100
0000
,  // measure 18
1001
0000
0000
0000
0001
0100
0000
0010
0000
0000
0100
0000
0001
0000
0000
0000
,  // measure 19
0010
0000
0100
0000
0001
0110
0110
0000
,  // measure 20
0000
0000
0000
0000
0100
0001
0000
0010
0000
0000
0100
0000
0001
0000
0000
0000
,  // measure 21
0000
0000
0000
0000
0010
0001
0000
0100
0000
0000
0010
0000
1000
0000
0100
0000
,  // measure 22
0010
0000
0000
0000
0001
0100
0000
1000
0000
0000
0001
0000
0100
0000
0000
0000
,  // measure 23
0000
0000
0000
0000
0100
0001
0000
0010
0000
0000
0100
0000
0001
0000
1000
0000
,  // measure 24
0100
0000
0000
0010
0000
0000
0000
0000
,  // measure 25
0000
0000
0000
0000
1000
0100
0000
0001
0000
0000
0010
0000
0100
0000
0001
0000
,  // measure 26
1000
0000
0000
0100
0000
0000
0000
0000
,  // measure 27
0000
0000
0000
0000
0010
0001
0000
0100
0000
0000
0001
0000
0010
0000
0100
0000
,  // measure 28
1000
0000
0000
0100
0000
0001
1000
0000
,  // measure 29
0100
0000
0000
0000
0000
0000
0010
0000
0000
0000
0100
0000
0000
0010
0000
0000
,  // measure 30
0010
0001
0100
0010
0001
1000
0001
0100
,  // measure 31
1000
0000
0000
0000
0010
0100
0000
0000
0010
0001
0000
0000
1000
0000
0000
0000
,  // measure 32
1001
0000
0000
0000
1001
0000
1000
0100
0001
0000
0100
0001
0010
0000
0010
0000
,  // measure 33
0110
0000
0000
0000
1001
0000
0010
0100
0001
0000
0010
0100
0001
0000
1000
0000
,  // measure 34
0101
0000
0010
0100
0001
0000
0010
0001
,  // measure 35
0100
0000
0000
0000
0010
0000
0000
0000
0100
0000
0001
0000
0010
0100
0000
0001
,  // measure 36
1000
0000
0000
0000
0101
0000
0100
0001
0010
0000
0100
0001
1000
0000
0100
0000
,  // measure 37
0011
0000
0000
0000
1001
0000
0100
0001
0010
0000
0100
0001
1000
0000
0100
0000
,  // measure 38
0001
0000
0001
0100
1000
0000
0001
0100
,  // measure 39
1000
0000
0100
0000
0001
0000
0000
0010
0100
0001
1000
0001
0010
0100
0001
0100
,  // measure 40
0001
0000
0000
0000
0000
0000
0100
0001
0010
0000
0100
0000
0000
0000
0110
0000
,  // measure 41
0000
0000
0001
0000
1000
0000
0001
0010
0100
0000
0001
0000
0000
0000
0101
0000
,  // measure 42
0000
0000
1000
0000
0100
0001
0010
0000
0100
0000
0010
0000
0000
0000
0110
0000
,  // measure 43
0000
0000
0010
0100
0001
0000
1000
0100
0001
0000
1000
0000
0000
0100
0001
0100
,  // measure 44
0001
0000
1000
0000
0000
0000
0100
0000
0001
0000
0000
1000
0000
0000
0010
0000
,  // measure 45
0101
0000
0000
0101
0000
0000
0101
0000
1000
0000
0000
0100
0000
0000
0001
0100
,  // measure 46
0001
1000
0100
0001
0010
0000
0100
0001
1000
0000
0100
0000
0000
0000
0010
0000
,  // measure 47
0001
0100
0001
0000
0010
0000
0100
0000
0000
0000
0001
0000
1000
0100
0000
0001
,  // measure 48
0010
0000
0000
0000
0100
0001
0000
0010
0000
0100
0000
0001
0000
0010
0000
0100
,  // measure 49
0000
0010
0000
0000
0000
0000
0001
1000
0000
0100
0000
0001
0000
0010
0000
0100
,  // measure 50
0000
0000
0000
0000
0000
0000
0000
0100
0000
1000
0000
0001
0000
0100
0000
0001
,  // measure 51
0000
0100
0000
0000
0000
0000
0010
0100
0000
0001
0000
1000
0000
0100
0000
0010
,  // measure 52
0000
0000
0000
0010
0000
0001
0000
0100
,  // measure 53
1000
0000
0000
0100
0000
0001
0000
0100
,  // measure 54
1000
0010
0001
0100
0001
1000
0001
0100
,  // measure 55
0010
0000
0000
0000
0100
0001
0000
0000
0100
0001
0000
0000
0010
0000
0000
0000
,  // measure 56
1001
0000
0000
0000
0110
0000
0010
0100
0001
0000
1000
0100
0001
0000
0010
0000
,  // measure 57
0110
0000
0000
0000
0101
0000
1000
0100
0001
0000
0010
0100
0001
0000
0100
0000
,  // measure 58
0110
0000
0100
0001
0010
0000
0100
0010
,  // measure 59
0001
0000
0000
0000
0001
0000
0000
0000
0010
0000
0001
0000
0100
0010
0000
0100
,  // measure 60
0001
0000
0000
0000
1001
0000
0010
0100
0001
0000
1000
0100
0001
0000
0010
0000
,  // measure 61
0101
0000
0000
0000
0101
0000
0010
0100
0010
0000
0001
1000
0100
0000
0010
0000
,  // measure 62
0001
0000
0001
1000
0100
0000
0100
0010
,  // measure 63
0100
0001
0100
0010
0001
0100
0010
0001
0100
0001
0100
0010
0001
1000
0001
0100
,  // measure 64
1000
0000
0100
0000
0000
0001
0000
0000
0010
0000
0000
0100
0000
0000
0001
0000
,  // measure 65
1000
0000
0100
0000
0000
0010
0000
0000
0100
0000
0000
0001
0000
0000
0010
0000
,  // measure 66
0000
0000
0100
0000
0000
0010
0000
0000
0001
0000
0000
0100
0000
0000
1000
0000
,  // measure 67
0100
0000
0000
0000
1000
0000
0000
0000
0001
0000
0010
0000
0100
0010
0000
0100
,  // measure 68
0001
0000
1000
0000
0000
0100
0000
0000
0001
0000
0000
0010
0000
0000
0100
0000
,  // measure 69
0000
0000
0000
0010
0000
0000
0100
0000
0001
0000
0000
1000
0000
0000
0100
0000
,  // measure 70
0000
0000
0010
0000
0000
0100
0000
0000
0001
0000
0000
0010
0000
0000
0100
0000
,  // measure 71
0001
0100
0010
0000
0001
0100
1000
0000
,  // measure 72
0000
0010
0001
0100
0001
1000
0100
0000
,  // measure 73
0100
0010
0001
0100
0001
0101
1000
0101
,  // measure 74
0000
0010
0001
0100
0001
0100
1000
0000
,  // measure 75
0100
0001
0000
0000
1000
0100
0000
0000
0001
0000
0000
0000
0100
0001
0000
0010
,  // measure 76
0000
0001
0100
1000
0000
0101
0000
0101
,  // measure 77
0100
1000
0000
0110
0000
0110
0000
0000
,  // measure 78
0001
1000
0100
0011
0000
0101
0000
1000
,  // measure 79
0220
0000
0000
0000
0000
0000
0330
0000
0100
0001
1000
0100
0001
0010
0100
0001
,  // measure 80
0100
0010
0100
0001
1000
0001
0010
0100
,  // measure 81
0001
0010
0001
0100
0001
0100
0010
0001
,  // measure 82
1000
0001
0100
0010
0001
0100
0001
0100
,  // measure 83
0010
0000
0001
0000
1000
0000
0001
0000
0100
0000
0010
0000
0100
0001
0010
0100
,  // measure 84
0001
0010
0100
0010
0001
0100
0001
0100
,  // measure 85
0010
0001
0100
0010
0001
1000
0001
0100
,  // measure 86
0001
0100
0010
0001
0100
0001
0100
0010
,  // measure 87
0100
0010
0001
1000
0001
0100
0010
0001
0100
0001
0100
0010
0010
1000
0001
0100
,  // measure 88
1000
0000
0000
0000
1001
0000
0100
0001
0010
0000
0100
0001
0010
0000
0100
0000
,  // measure 89
0110
0000
0000
0000
0110
0000
0100
1000
0010
0000
0010
0100
0001
0000
0100
0000
,  // measure 90
0010
0000
0001
0100
1000
0000
0100
0001
,  // measure 91
0010
0000
0000
0000
0001
0000
0000
0000
0100
0000
0010
0000
1000
0100
0000
0001
,  // measure 92
0010
0000
0000
0000
0110
0000
0001
1000
0100
0000
0010
0001
0100
0000
0010
0000
,  // measure 93
0110
0000
0000
0000
0000
0000
0001
0010
0100
0000
1000
0100
0001
0000
0100
0000
,  // measure 94
1010
0000
0100
0001
0010
0000
0001
0100
,  // measure 95
1000
0100
0001
0100
0001
1000
0001
0010
0100
0001
1000
0001
0010
0100
0001
0100
,  // measure 96
0010
0000
0010
0000
0000
0100
0000
0000
0001
0000
0000
1000
0000
0000
0100
0000
,  // measure 97
0000
0000
0100
0000
0000
0010
0000
0000
0001
0000
0000
0100
0000
0000
1000
0000
,  // measure 98
0000
0000
0100
0000
0000
0010
0000
0000
0001
0000
0000
1000
0000
0000
0100
0000
,  // measure 99
0100
0000
0000
0000
0001
0000
0000
0000
0100
0000
0010
0000
0100
0001
0000
0010
,  // measure 100
0100
0000
0010
0000
0000
0100
0000
0000
0001
0000
0000
1000
0000
0000
0100
0000
,  // measure 101
0000
0000
0001
0000
0000
0010
0000
0000
0100
0000
0000
0001
0000
0000
1000
0000
,  // measure 102
0000
0000
0100
0000
0000
0010
0000
0000
0100
0000
0000
0010
0000
0000
0100
0000
,  // measure 103
0010
0100
0001
0100
0001
0100
0010
0001
0100
0001
0100
0010
0001
1000
0001
0100
,  // measure 104
1000
0000
0000
0000
;
