#TITLE:redred;
#SUBTITLE:;
#ARTIST:Cortis;
#TITLETRANSLIT:;
#SUBTITLETRANSLIT:;
#ARTISTTRANSLIT:;
#GENRE:;
#CREDIT:;
#BANNER:;
#BACKGROUND:;
#LYRICSPATH:;
#CDTITLE:;
#MUSIC:REDRED.ogg;
#OFFSET:0.000000;
#SAMPLESTART:100.059883;
#SAMPLELENGTH:12.000000;
#SELECTABLE:YES;
#BPMS:0.000000=121.000000
;
#STOPS:0.000000=0.200000
;
#BGCHANGES:;
#KEYSOUNDS:;
#ATTACKS:;

//---------------dance-single - ----------------
#NOTES:
     dance-single:
     :
     Hard:
     13:
     0.669251,0.676730,0.723562,0.024528,0.953508,764.000000,646.000000,118.000000,4.000000,0.000000,0.000000,0.669251,0.676730,0.723562,0.024528,0.953508,764.000000,646.000000,118.000000,4.000000,0.000000,0.000000:
// measure 0
0000
0000
0000
0000
,  // measure 1
0000
0000
0000
0000
,  // measure 2
0000
0000
0000
0000
,  // measure 3
0000
0000
0000
0000
,  // measure 4
0001
1000
0100
0001
0100
0001
0100
0000
0000
1000
0000
0100
,  // measure 5
0010
0001
1000
0001
0100
0010
2002
0000
0000
3003
0000
0010
,  // measure 6
0100
0010
0001
1000
0001
0100
1000
0000
0000
0000
0000
0010
,  // measure 7
0001
0100
0010
0001
0100
0001
0100
0010
0001
1000
0001
0100
,  // measure 8
1000
0010
0100
0010
0001
0100
1010
0000
0000
1010
0000
0000
,  // measure 9
0010
0001
0100
0001
0100
0010
1001
0000
0000
1001
0000
0000
,  // measure 10
0010
0100
0010
0001
0100
0010
1001
0000
0000
1001
0000
0000
,  // measure 11
0100
0000
0000
0010
0000
0000
0000
0000
0000
0100
0000
0000
0000
0000
0000
0000
0001
0000
0000
0000
0010
0000
0000
0000
0110
0000
0000
0000
0000
0000
0000
0000
0000
0000
0000
0000
0110
0000
0000
0000
0000
0000
0000
0000
0000
0000
0000
0000
,  // measure 12
1001
0000
0000
0001
1001
0000
0000
0001
,  // measure 13
1000
0001
0100
0010
0110
0000
0000
0010
,  // measure 14
0101
0000
0000
0001
0101
1000
1100
0100
,  // measure 15
0010
0000
0100
0000
0010
0000
0100
0001
1000
0000
0000
0000
0000
0000
0010
0000
,  // measure 16
0100
0010
0001
0100
0001
1000
0100
0000
0000
0000
0000
0000
,  // measure 17
0010
0000
0100
0000
0001
1000
0100
0000
0010
0000
0000
0000
0000
0000
0000
0000
,  // measure 18
0100
0010
0001
1000
0001
0100
1100
0000
0000
1100
0000
0000
,  // measure 19
0010
0001
1000
0001
0100
0010
0101
0000
0000
0101
0000
0000
,  // measure 20
0010
0001
0100
0001
0100
1000
1100
0000
0000
1100
0000
0000
,  // measure 21
0010
0001
0100
0010
0100
0001
1100
0000
0000
1100
0000
0000
,  // measure 22
0100
0010
0001
0100
0001
0100
1001
0000
0000
1001
0000
0000
,  // measure 23
0010
0001
0100
0001
0100
0010
1001
0000
0000
1001
0000
0000
,  // measure 24
1000
0100
1000
0100
1000
0100
1100
0000
0000
1100
0000
0000
,  // measure 25
0100
0010
0001
0100
0001
0100
1001
0000
0000
1001
0000
0000
,  // measure 26
0100
0010
0001
0100
0001
0100
0110
0000
0000
0110
0000
0000
,  // measure 27
0010
0001
1000
0001
0100
0010
0110
0000
0000
0110
0000
0010
,  // measure 28
0001
0100
0010
0001
1000
0001
0100
1000
0100
0010
0001
0100
,  // measure 29
0010
0001
0100
0001
0100
0010
1001
0000
0000
1001
0000
0000
,  // measure 30
0010
0100
0010
0001
0100
0001
0100
0010
0001
0100
0001
0100
,  // measure 31
0010
0001
1000
0001
0100
0010
1001
0000
0000
1001
0000
0000
,  // measure 32
0010
0001
0100
0001
0100
0010
1001
0000
0000
1001
0000
0000
,  // measure 33
0010
0001
0100
0001
0100
0010
1001
0000
0000
1001
0000
0000
,  // measure 34
0010
0001
1000
0001
0100
0010
0101
0000
0000
0101
0000
0000
,  // measure 35
0010
0000
0001
0000
1000
0000
0001
0000
0100
0000
0010
0000
1001
0000
0000
0000
0000
0000
1001
0000
0000
0001
0000
0000
,  // measure 36
0110
0000
0000
0000
0000
0000
0010
0000
0000
0000
0000
0000
0100
0000
0000
0001
0000
0000
1000
0000
0000
0000
0000
0000
0110
0000
0000
0000
0000
0000
0010
0000
0000
0000
0000
0000
0100
0000
0000
0000
0001
0000
0000
0000
1000
0000
0000
0000
,  // measure 37
0110
0000
0010
0000
0100
0010
0100
0000
1001
0000
0100
0000
0010
0001
0100
0000
,  // measure 38
0010
0000
0000
0000
0000
0000
0100
0000
0000
0010
0000
0000
0001
0000
0000
0000
1000
0000
0000
0000
0100
0000
0000
0000
0001
0000
0000
0000
0000
0000
0010
0000
0000
0000
0000
0000
0100
0000
0000
0000
0010
0000
0000
0000
0100
0000
0000
0000
,  // measure 39
0001
0100
0010
0100
0001
0100
1000
0000
0000
1001
0000
0000
,  // measure 40
1001
0000
0010
0000
0100
0001
0010
0000
1100
0000
0000
0000
1100
0000
0000
0000
,  // measure 41
0100
0000
0010
0000
0100
0010
0100
0000
1001
0000
0000
0000
1001
0000
0000
0000
,  // measure 42
0100
0000
0010
0000
0010
0001
0100
0000
1001
0000
0000
0000
1001
0000
0000
0000
,  // measure 43
0100
0000
0010
0000
0100
0000
0001
0000
1000
0000
0001
0000
0110
0000
0000
0000
0000
0000
0110
0000
0000
0001
0000
0000
,  // measure 44
1000
0000
0000
0000
0000
0000
0100
0000
0010
0000
0001
0000
0100
0000
0001
0000
0100
0000
1000
0000
0000
0101
0000
0000
,  // measure 45
0101
0000
0000
0000
0000
0000
0100
0000
0010
0000
0001
0000
1000
0000
0001
0000
0100
0000
1000
0000
0000
0101
0000
0000
,  // measure 46
0101
0000
0000
0100
0010
0001
0100
0001
0100
1000
0010
0100
,  // measure 47
0010
0000
0001
0000
0100
0000
0010
0000
0001
0000
0100
0000
0001
0000
0100
0000
1000
0000
0100
0000
0000
0101
0000
0000
,  // measure 48
0101
0000
0000
0000
0000
0000
0010
0000
0001
0000
0100
0000
0001
0000
0100
0000
0001
0000
0100
0000
0000
1000
0000
0000
,  // measure 49
0000
0000
0000
0000
0000
0000
0000
0000
0100
0000
0000
0000
0010
0000
0000
0000
0001
0000
0000
0000
1000
0000
0000
0000
0001
0000
0000
0000
0100
0000
0000
0000
0010
0000
0000
0000
1000
0000
0000
0000
0000
0000
0000
0000
0000
0001
0000
0000
,  // measure 50
0000
0000
0000
0000
0000
0000
0000
0000
0100
0000
0000
0000
0010
0000
0000
0000
0001
0000
0000
0000
1000
0000
0000
0000
0001
0000
0000
0000
0100
0000
0000
0000
0010
0000
0000
0000
0001
0000
0000
0000
0000
0000
0000
0000
0000
0100
0000
0000
,  // measure 51
0010
0100
0001
1000
0001
0100
0110
0000
0000
0110
0000
0000
,  // measure 52
0010
0001
0100
0001
0100
0010
1001
0000
0000
1001
0000
0000
,  // measure 53
0010
0001
0100
0001
0100
0010
1001
0000
0000
1001
0000
0000
,  // measure 54
0100
0010
0100
0001
0100
1000
0110
0000
0000
0110
0000
0000
,  // measure 55
0010
0001
0100
0001
0100
0010
1001
0000
0000
1001
0000
0000
,  // measure 56
0100
0010
0100
0001
0100
0010
1001
0000
0000
1001
0000
0000
,  // measure 57
0010
0001
0100
0001
0100
0010
1001
0000
0000
0110
0000
0000
,  // measure 58
0100
0010
0001
0100
0001
0100
1001
0000
0000
1001
0000
0000
,  // measure 59
0010
0001
0100
0001
0100
0010
1001
0000
0000
1001
0000
0000
,  // measure 60
1001
0000
0010
0100
0000
0001
0010
0000
0100
0000
0010
0100
0001
0010
0100
0000
,  // measure 61
0011
0000
1000
0100
0000
0010
0100
0000
0010
0000
0100
0001
0000
1000
0100
0010
,  // measure 62
0100
0000
0010
0001
0000
0100
0010
0000
0010
0100
0001
1000
0001
0010
0100
0001
,  // measure 63
0010
0100
0001
1000
0001
0010
0110
0000
0000
0110
0000
0000
,  // measure 64
0100
0010
0001
0100
0001
0100
1001
0000
0000
1001
0000
0000
,  // measure 65
0010
0001
0100
0001
0100
0010
1001
0000
0000
1001
0000
0000
,  // measure 66
0100
0010
0100
0001
0100
0010
1001
0000
0000
1001
0000
0000
,  // measure 67
0010
0100
0001
1000
0001
0010
0101
0000
0000
0101
0000
0000
,  // measure 68
0100
0010
0100
0001
0100
0010
1001
0000
0000
1001
0000
0000
,  // measure 69
0010
0100
0010
0001
0100
0010
1001
0000
0000
1001
0000
0000
,  // measure 70
0100
0010
0100
0001
0100
0010
1001
0000
0000
1001
0000
0000
,  // measure 71
0100
0010
0100
0001
0100
0010
1001
0000
0000
1001
0000
0001
,  // measure 72
0100
0010
0001
0100
0001
0100
0010
0001
0100
0001
1000
0100
,  // measure 73
0001
0100
0010
0001
0100
0010
1001
0000
0000
1001
0000
0000
,  // measure 74
0010
0100
0010
0001
1000
0001
0100
0010
0001
0100
0001
0100
,  // measure 75
0010
0001
1000
0001
0100
0010
1001
0000
0000
1001
0000
0000
,  // measure 76
0100
0010
0100
0001
0100
0010
1001
0000
0000
1001
0000
0000
,  // measure 77
0100
0010
0100
0001
0100
0010
1001
0000
0000
1001
0000
0000
,  // measure 78
0010
0001
0100
0001
0100
0010
1001
0000
0000
1001
0000
0000
,  // measure 79
0100
0010
0100
0001
0100
0010
1001
0000
0000
1001
0000
0000
,  // measure 80
2002
0000
0000
0000
,  // measure 81
0000
0000
0000
3003
;
