#TITLE:reaching4u;
#SUBTITLE:;
#ARTIST:Pluko;
#TITLETRANSLIT:;
#SUBTITLETRANSLIT:;
#ARTISTTRANSLIT:;
#GENRE:;
#CREDIT:;
#BANNER:;
#BACKGROUND:;
#LYRICSPATH:;
#CDTITLE:;
#MUSIC:pluko - REACHING4U [Official Video].ogg;
#OFFSET:0.000000;
#SAMPLESTART:100.059883;
#SAMPLELENGTH:12.000000;
#SELECTABLE:YES;
#BPMS:0.000000=194.000000
,384.000000=97.000000
,416.000000=194.000000
,480.000000=48.500000
,496.000000=43.000000
,496.500000=42.000000
,497.000000=20.000000
;
#STOPS:0.000000=0.100000
;
#BGCHANGES:0.000=pluko - REACHING4U [Official Video].mp4=1.000=0=0=1=====,
99999=-nosongbg-=1.000=0=0=0 // don't automatically add -songbackground-
;
#KEYSOUNDS:;
#ATTACKS:;

//---------------dance-single - ----------------
#NOTES:
     dance-single:
     :
     Hard:
     12:
     0.509359,0.603921,0.030302,0.045453,0.012626,706.000000,700.000000,6.000000,9.000000,0.000000,0.000000,0.509359,0.603921,0.030302,0.045453,0.012626,706.000000,700.000000,6.000000,9.000000,0.000000,0.000000:
// measure 0
0000
0000
0000
0000
,  // measure 1
0000
0000
0000
0000
,  // measure 2
0000
0000
0000
0000
,  // measure 3
0000
0000
0000
0000
,  // measure 4
0000
0000
0000
0000
,  // measure 5
0000
0000
0000
0000
,  // measure 6
0000
0000
0000
0000
,  // measure 7
0000
0000
0000
0000
,  // measure 8
0200
0000
0000
0000
,  // measure 9
0000
0000
0000
0300
,  // measure 10
0002
0000
0000
0000
,  // measure 11
0000
0000
0000
0003
,  // measure 12
2000
0000
0000
0000
,  // measure 13
0000
0000
0000
3000
,  // measure 14
0200
0000
0000
0000
,  // measure 15
0000
0000
0000
0300
,  // measure 16
0010
0001
0100
0001
0100
0010
0001
0100
,  // measure 17
0001
0100
0010
0001
0100
0001
0100
1000
,  // measure 18
0100
0010
0100
0100
0001
0001
0100
0010
,  // measure 19
0001
0100
0001
0100
0100
0010
0001
0100
,  // measure 20
0001
0100
1000
0100
0010
0001
0100
0001
,  // measure 21
0100
0010
0001
1000
0001
0100
0010
0001
,  // measure 22
0100
0001
0100
0010
0001
0100
0001
0100
,  // measure 23
1000
0010
1000
0001
0100
0010
0001
0100
,  // measure 24
0001
0100
0010
0001
1000
0001
0100
0010
,  // measure 25
0001
0100
0001
0100
0010
0001
1000
0001
,  // measure 26
0100
0010
0001
0100
0001
0100
0010
0001
,  // measure 27
0100
0001
0100
0010
0100
1000
0100
0010
,  // measure 28
0100
0001
0010
0100
0001
0100
0001
0100
,  // measure 29
0010
0001
0100
0001
0100
0010
0001
1000
,  // measure 30
0001
0100
0010
0001
0100
0001
0100
0010
,  // measure 31
0001
1000
0001
0100
,  // measure 32
1000
0100
0100
0010
0100
0010
0001
1000
,  // measure 33
0001
0100
0010
0001
0100
0001
0100
0010
,  // measure 34
0001
0100
0001
0100
0010
0001
1000
0001
,  // measure 35
0100
0010
0001
0100
0001
0100
0010
0001
,  // measure 36
0100
0001
0100
0010
0001
1000
0001
0100
,  // measure 37
0010
0001
0100
0001
0100
0010
0001
0100
,  // measure 38
0001
0100
0010
0001
0100
0001
0100
0010
,  // measure 39
0001
0100
0010
0100
1000
0100
0010
0100
,  // measure 40
0010
0100
0010
0100
1000
0100
0010
0001
,  // measure 41
0100
0001
0100
0010
0001
0100
0001
0100
,  // measure 42
0010
0001
0100
0001
0100
0010
0100
1000
,  // measure 43
0100
0010
0100
0001
0100
0010
0100
0001
,  // measure 44
0100
0010
0001
0100
0001
0100
0010
0001
,  // measure 45
1000
0001
0100
0010
0001
0100
0001
0100
,  // measure 46
0010
0001
0100
1000
0001
0100
0010
0001
,  // measure 47
0100
0010
0001
0100
,  // measure 48
0100
0100
0000
0010
,  // measure 49
0100
0001
1000
0100
,  // measure 50
0000
0010
0000
0001
,  // measure 51
0100
0001
0100
1000
,  // measure 52
0000
0010
0000
0010
,  // measure 53
0100
0001
0100
1000
,  // measure 54
0000
0010
0000
0001
,  // measure 55
0100
0001
0100
1000
,  // measure 56
0010
0001
0100
0010
,  // measure 57
0100
0001
0100
1000
,  // measure 58
0001
0100
0010
0001
,  // measure 59
0100
0001
0100
1000
,  // measure 60
0010
0001
0100
0010
,  // measure 61
0001
0100
0010
0001
,  // measure 62
0100
0001
0100
0010
,  // measure 63
0001
0100
0001
0100
,  // measure 64
1000
0010
0001
0100
0010
0001
1000
0001
,  // measure 65
0100
0000
0010
0000
0100
0010
0001
0000
0010
0000
0001
0000
0100
0000
1000
0000
,  // measure 66
0100
0100
0010
0100
0010
0001
0100
0001
,  // measure 67
0100
0010
0001
0100
0010
0100
0010
0001
,  // measure 68
1000
0001
0100
0010
0001
0100
0001
0100
,  // measure 69
0010
0001
1000
0001
0100
0010
0001
1000
,  // measure 70
0100
0100
0010
0001
0100
0001
0100
0010
,  // measure 71
0001
0100
0001
0100
0010
0100
0001
0000
,  // measure 72
1000
0100
0010
0100
1000
0100
0010
0100
,  // measure 73
0010
0100
0010
0100
1000
0100
0010
0100
,  // measure 74
0010
0100
1000
0100
0010
0001
0100
0001
,  // measure 75
0100
0010
0001
0100
0001
0100
0010
0001
,  // measure 76
1000
0001
0100
0010
0001
0100
0001
0100
,  // measure 77
0010
0001
0100
0001
0100
0010
0001
1000
,  // measure 78
0001
0100
0010
0001
0100
0001
0100
0010
,  // measure 79
0101
0101
0101
0101
,  // measure 80
0001
0100
0010
0100
0000
0000
0000
0000
,  // measure 81
0001
0000
0010
0100
0000
0001
0000
0010
,  // measure 82
0000
0000
0000
0000
0000
0100
0000
0000
,  // measure 83
0000
0010
0000
0001
0000
0100
0000
0010
,  // measure 84
0010
0001
0100
1000
0000
0000
0000
0000
,  // measure 85
0100
0000
0001
0000
0010
0000
0001
0010
,  // measure 86
0000
0100
0010
0000
0001
0000
0100
0000
,  // measure 87
0010
0001
0100
1000
,  // measure 88
0001
1000
0001
0100
0000
0000
0100
0000
,  // measure 89
0001
0010
0000
0001
0000
0010
0000
0100
,  // measure 90
0000
0000
0010
0100
0000
0001
0000
0000
,  // measure 91
0100
0000
0001
0010
0000
0000
0000
0000
,  // measure 92
0010
0001
0100
1000
0000
0000
0100
0001
,  // measure 93
0010
0000
0001
0100
0000
0010
0000
0100
,  // measure 94
0000
0001
0010
0000
0001
0000
0000
0000
,  // measure 95
0100
0001
0100
1000
,  // measure 96
0001
0100
0001
0100
0010
0001
0100
0001
,  // measure 97
0100
0010
0001
1000
0001
0100
0010
0001
,  // measure 98
0100
0001
0100
0010
0100
1000
0100
0010
,  // measure 99
0100
0001
0100
0010
0010
0100
0001
0100
,  // measure 100
1000
0100
1000
0100
1000
0100
1000
0100
,  // measure 101
1000
0100
1000
0100
0100
1000
0100
0100
,  // measure 102
1000
0100
1000
0010
0100
0010
0100
0010
,  // measure 103
0100
0010
0100
1000
0100
0010
0100
0010
,  // measure 104
0100
0010
0001
0010
0001
0001
0010
0001
,  // measure 105
1000
0001
0100
0010
0001
0100
0001
0100
,  // measure 106
1000
0010
0001
0100
0010
0100
0010
0001
,  // measure 107
0100
0001
0100
0010
0001
1000
0001
0100
,  // measure 108
0010
0001
0100
0001
0100
0010
0001
1000
,  // measure 109
0001
0100
0010
0001
0100
0001
0100
0010
,  // measure 110
0001
0100
0001
0100
0010
0001
1000
0001
,  // measure 111
0100
0000
0010
0000
0001
0000
0100
0000
0001
0000
0100
0000
0010
0000
0001
0100
,  // measure 112
1000
0010
0001
1000
0001
0100
0001
0010
,  // measure 113
0100
0001
1000
0001
0100
0010
0001
0100
,  // measure 114
0001
0100
0010
0001
1000
0001
0100
0010
,  // measure 115
1000
0000
0100
0000
0001
0000
0010
0100
0001
0100
1000
0000
0001
0000
0100
0000
,  // measure 116
0010
0010
0100
1000
0100
0010
0100
0010
,  // measure 117
0010
0100
0001
0100
0010
0001
1000
0001
,  // measure 118
0100
0010
0001
0100
0001
0100
0010
0001
,  // measure 119
1000
0001
0100
0010
0001
0100
0001
0100
,  // measure 120
2002
0000
0000
0000
,  // measure 121
0000
0000
0000
0000
,  // measure 122
0000
0000
0000
0000
,  // measure 123
0000
3003
0220
0330
,  // measure 124
0100
0000
0100
0000
0100
0000
0100
0200
0000
0000
0000
0000
0000
0000
0000
0000
,  // measure 125
0000
0000
0000
0000
0000
0000
0000
0300
;
