#VERSION:0.83;
#TITLE:punk rocky;
#SUBTITLE:;
#ARTIST:A$AP Rocky;
#TITLETRANSLIT:;
#SUBTITLETRANSLIT:;
#ARTISTTRANSLIT:;
#GENRE:;
#ORIGIN:;
#CREDIT:;
#BANNER:;
#BACKGROUND:;
#PREVIEWVID:;
#JACKET:;
#CDIMAGE:;
#DISCIMAGE:;
#LYRICSPATH:;
#CDTITLE:;
#MUSIC:Punk Rocky.ogg;
#OFFSET:0.000000;
#SAMPLESTART:100.059883;
#SAMPLELENGTH:12.000000;
#SELECTABLE:YES;
#BPMS:0.000=140.000,
192.000=70.000,
228.000=140.000,
324.000=70.000,
340.000=140.000,
444.000=70.000;
#STOPS:0.000=0.200;
#DELAYS:;
#WARPS:;
#TIMESIGNATURES:0.000=4=4;
#TICKCOUNTS:0.000=4;
#COMBOS:0.000=1;
#SPEEDS:0.000=1.000=0.000=0;
#SCROLLS:0.000=1.000;
#FAKES:;
#LABELS:0.000=Song Start;
#BGCHANGES:;
#KEYSOUNDS:;
#ATTACKS:
;

//---------------dance-single - ----------------
#NOTEDATA:;
#CHARTNAME:;
#STEPSTYPE:dance-single;
#DESCRIPTION:;
#CHARTSTYLE:;
#DIFFICULTY:Hard;
#METER:12;
#RADARVALUES:0.418107,0.764992,0.080709,0.059469,0.214515,689.000000,670.000000,19.000000,14.000000,0.000000,0.000000,0.000000,0.000000,0.000000,0.418107,0.764992,0.080709,0.059469,0.214515,689.000000,670.000000,19.000000,14.000000,0.000000,0.000000,0.000000,0.000000,0.000000;
#CREDIT:;
#NOTES:
// measure 0
0000
0000
0000
0000
,  // measure 1
0000
0000
0000
0000
,  // measure 2
0000
0000
0000
0000
,  // measure 3
0000
0000
0000
0000
,  // measure 4
0001
0100
0010
0001
,  // measure 5
1000
0001
0100
0001
,  // measure 6
0100
0001
0100
1000
,  // measure 7
0001
0000
0000
0000
0100
0000
0000
0000
0000
0000
1000
0100
0001
0000
0010
0000
,  // measure 8
0000
0000
0010
0001
,  // measure 9
0000
0000
0100
0010
,  // measure 10
0000
0000
0100
0001
,  // measure 11
0000
0000
0100
1000
,  // measure 12
0000
0000
0001
0100
,  // measure 13
0000
0000
0100
1000
,  // measure 14
0000
0000
0000
0000
,  // measure 15
0000
0000
0001
0100
,  // measure 16
0000
0000
0000
0000
0000
0000
0100
0000
0001
0000
1000
0000
,  // measure 17
0100
0000
0001
0100
,  // measure 18
1001
0000
0100
0010
,  // measure 19
0110
0000
1000
0001
,  // measure 20
0110
0000
0000
0000
0000
0000
0001
0000
0100
0000
0010
0000
,  // measure 21
0001
0000
0001
0100
,  // measure 22
1001
0000
1000
0100
,  // measure 23
0000
0000
0010
0001
,  // measure 24
0100
0010
0001
1000
0001
0100
1000
0000
,  // measure 25
0100
0010
0001
1000
0001
0100
0010
0000
,  // measure 26
0100
0001
0100
0010
1000
0001
0100
0000
,  // measure 27
0020
0000
0200
0330
,  // measure 28
0001
1000
0100
0001
0100
0001
0010
0000
,  // measure 29
0100
0001
1000
0001
0010
0100
0001
0000
,  // measure 30
0010
0001
0100
0010
0100
0001
1000
0000
,  // measure 31
0020
0000
0200
0330
,  // measure 32
0100
0010
0001
0100
0001
0100
1000
0000
,  // measure 33
0100
0010
0001
1000
0001
0100
0010
0000
,  // measure 34
0100
0010
0001
0100
0001
0100
1000
0000
,  // measure 35
0001
0100
0010
0001
1000
0001
0100
0000
,  // measure 36
0100
0010
0001
0100
0001
0100
1000
0000
,  // measure 37
0100
0010
0001
0100
0001
0100
1000
0000
,  // measure 38
0001
0100
0001
0100
1000
0000
0010
0000
,  // measure 39
0001
0000
0010
0001
1000
0001
0100
0000
,  // measure 40
1001
0100
0001
0100
0001
1000
0100
0000
,  // measure 41
0100
0010
0001
0100
0001
0100
1000
0000
,  // measure 42
0100
0010
0001
0100
0001
0100
1000
0000
,  // measure 43
0100
0010
0001
0100
0001
0100
1000
0000
,  // measure 44
0001
0100
1000
0001
0100
0001
0100
0000
,  // measure 45
0100
0010
0001
0100
0001
0100
1000
0000
,  // measure 46
0010
0001
1000
0001
0100
0000
0010
0000
,  // measure 47
0100
0000
0001
1000
0100
0001
0010
0000
,  // measure 48
1001
0000
0000
0000
0000
0000
0000
0000
0000
0000
0000
0000
0000
0001
1000
0100
,  // measure 49
0010
0000
0100
0001
1000
0000
0000
0000
0000
0000
1001
0000
0000
0010
0001
0100
,  // measure 50
0010
0000
0001
1000
0100
0000
0010
0000
0001
1000
0001
0100
1000
0001
0010
0100
,  // measure 51
0001
0100
0001
1000
0100
0000
0000
0010
0001
0100
0001
1000
0100
0000
0010
0000
,  // measure 52
0000
0100
0001
1000
0010
0100
0001
0100
1000
0000
0100
0000
0000
0000
0010
0000
,  // measure 53
0001
0100
0001
0000
0000
0000
0000
0010
0001
1000
0001
0000
0001
0100
0001
1000
,  // measure 54
0100
0000
0100
0010
0001
1000
0001
0100
1000
0000
0100
0010
0001
0100
0001
1000
,  // measure 55
0100
0000
0010
0100
0001
1000
0001
0010
0100
0010
0001
1000
0001
0100
1000
0100
,  // measure 56
0001
0010
0000
0001
0100
0010
0001
0100
0010
0000
1001
0000
0000
0000
0001
0100
,  // measure 57
1000
0100
0001
0100
0001
0010
0100
0000
,  // measure 58
0100
0010
0001
1000
0001
0100
1000
0000
,  // measure 59
0010
0001
0100
0001
0100
1000
0001
0000
,  // measure 60
0200
0000
0020
0330
,  // measure 61
0100
0010
0001
0100
0001
0100
1000
0000
,  // measure 62
0001
0100
0001
0100
0001
0100
1000
0000
,  // measure 63
0001
0100
0001
0100
0001
0100
1000
0000
,  // measure 64
0200
0000
2000
3300
,  // measure 65
0100
0010
0001
1000
0001
0100
1000
0000
,  // measure 66
0010
0100
0001
1000
0001
0010
0100
0000
,  // measure 67
0100
0010
0001
0100
0001
0100
1000
0000
,  // measure 68
0100
0010
0001
0100
0001
0100
1000
0000
,  // measure 69
0100
0010
0001
0100
0001
0100
1000
0000
,  // measure 70
0100
0010
0001
0100
0001
0100
1000
0000
,  // measure 71
0010
0100
0001
1000
0001
0000
0010
0000
,  // measure 72
0100
0000
0001
1000
0100
0001
0100
0000
,  // measure 73
0001
0100
0001
0100
0001
1000
0100
0000
,  // measure 74
0100
0010
0001
1000
0001
0100
1000
0000
,  // measure 75
0010
0100
0001
1000
0001
0010
0100
0000
,  // measure 76
0001
0100
0001
0100
0001
0010
0100
0000
,  // measure 77
1000
0100
0001
0100
0001
0100
0001
0000
,  // measure 78
0010
0100
0001
1000
0001
0010
0100
0000
,  // measure 79
0010
0100
0001
1000
0001
0000
0010
0000
,  // measure 80
0100
0000
0001
1000
0001
0100
1000
0000
,  // measure 81
1000
0000
0000
0000
0000
0000
0100
0000
0010
0000
0001
0000
1000
0000
0000
0000
0000
0000
0001
0000
0000
0010
0000
0000
,  // measure 82
1000
0000
0001
0100
1000
0000
1000
0001
,  // measure 83
0100
0000
0000
0000
0000
0000
1000
0000
0100
0000
0001
0000
0100
0000
0000
0000
0000
0000
0100
0000
0000
0001
0000
0000
,  // measure 84
1000
0000
1000
0001
0100
0000
0001
0100
,  // measure 85
1000
0000
0000
0000
0000
0000
0100
0000
0001
0000
1000
0000
,  // measure 86
0100
0000
0000
0000
0000
0000
0100
0000
0010
0000
0001
0000
,  // measure 87
2000
0000
0000
0000
,  // measure 88
0200
0000
0000
3300
,  // measure 89
0010
0000
0000
0000
0000
0000
0100
0000
0010
0000
0001
0000
,  // measure 90
1000
0000
0000
0000
0000
0000
0010
0000
0001
0000
0100
0000
,  // measure 91
2000
0000
0000
0000
,  // measure 92
0200
0000
0000
3300
,  // measure 93
0010
0000
0000
0000
0000
0000
0100
0000
0001
0000
1000
0000
,  // measure 94
0100
0000
0000
0000
,  // measure 95
0100
0110
0000
0000
,  // measure 96
0010
0000
0000
0000
0110
0000
0000
0000
0000
0000
0000
0000
1000
0100
0001
1000
,  // measure 97
0001
0010
0100
0001
0010
0000
0001
0000
0100
0000
0000
0000
0000
0000
0000
0000
,  // measure 98
1000
0100
0001
0000
0010
0000
0100
0000
0001
0000
0000
0000
0000
0000
0000
0000
,  // measure 99
1000
0000
0100
0001
0010
0000
0100
0000
0001
0000
0000
0000
0100
0000
0001
1000
,  // measure 100
0100
0000
0001
0100
1000
0000
0100
0000
0001
0000
0000
0000
0010
0000
0001
0000
,  // measure 101
0100
0000
0010
0100
0001
0000
1000
0000
0100
0000
0000
0000
0000
0000
0000
0000
,  // measure 102
0100
0001
1000
0100
0001
0000
0010
0000
0100
0000
0000
0000
0100
0000
0001
0000
,  // measure 103
1000
0010
0100
0001
0100
0000
0100
0000
0010
0000
0000
0000
1000
0000
0100
0000
,  // measure 104
0001
0100
0001
0100
1000
0000
0010
0100
,  // measure 105
0001
0100
0001
1000
0100
0000
0000
1000
,  // measure 106
0100
0000
0010
0100
0001
0000
0010
0000
0100
0000
0000
0000
0000
0000
0000
0000
,  // measure 107
0100
0001
1000
0000
0100
0000
0001
0000
0010
0000
0000
0000
0001
0000
0100
0000
,  // measure 108
0010
0000
1000
0001
0100
0000
0100
0000
0010
0000
0000
0000
1001
0000
0000
0000
,  // measure 109
0011
0000
0000
0000
0000
0000
1000
0000
0001
0000
0010
0000
,  // measure 110
0100
0000
0000
0000
0000
0000
0010
0000
0001
0000
0100
0000
,  // measure 111
2002
0000
0000
0000
3003
0000
0100
0010
0001
1000
0001
0100
1000
0000
0101
0000
,  // measure 112
0000
0000
0010
0000
0100
0000
0000
0000
0010
0000
0100
0000
0001
0000
0000
0000
0000
0000
0100
0000
0001
0000
0100
0001
0100
0000
0010
0000
0100
0000
0000
0000
,  // measure 113
0000
0100
0001
0100
0001
0010
0100
0000
0101
0000
0000
0000
0110
0000
0000
0000
,  // measure 114
1000
0010
0100
0000
0001
0010
0100
0000
0100
0000
0100
0000
0100
0001
1000
0000
,  // measure 115
0100
0010
0001
1000
0100
0010
0001
0000
1100
0000
0000
0000
0110
0000
0000
0000
,  // measure 116
0101
0000
0000
0000
1000
0100
0001
0000
0000
0000
0000
0000
0000
0000
0000
0000
0000
0000
0000
0000
0000
0000
0000
0000
0000
0000
0000
0000
0000
0000
0000
0000
;
