#TITLE:promise;
#SUBTITLE:;
#ARTIST:People I've Met;
#TITLETRANSLIT:;
#SUBTITLETRANSLIT:;
#ARTISTTRANSLIT:;
#GENRE:;
#CREDIT:;
#BANNER:;
#BACKGROUND:;
#LYRICSPATH:;
#CDTITLE:;
#MUSIC:People Ive Met - Promise (Official Music Video).ogg;
#OFFSET:0.000000;
#SAMPLESTART:100.059883;
#SAMPLELENGTH:12.000000;
#SELECTABLE:YES;
#BPMS:0.000000=101.000000
;
#STOPS:0.000000=0.600000
;
#BGCHANGES:0.000=People I’ve Met - Promise (Official Music Video) - People I've Met (1080p).mp4=1.000=0=0=1=====,
99999=-nosongbg-=1.000=0=0=0 // don't automatically add -songbackground-
;
#KEYSOUNDS:;
#ATTACKS:;

//---------------dance-single - ----------------
#NOTES:
     dance-single:
     :
     Hard:
     9:
     0.319741,0.407471,0.046435,0.241464,0.013931,482.000000,472.000000,10.000000,52.000000,0.000000,0.000000,0.319741,0.407471,0.046435,0.241464,0.013931,482.000000,472.000000,10.000000,52.000000,0.000000,0.000000:
// measure 0
0000
0000
0000
0000
,  // measure 1
0000
0000
0000
0000
,  // measure 2
0000
0000
0000
0000
,  // measure 3
0000
0000
0000
0000
0010
0001
0100
0000
,  // measure 4
0000
0020
0000
0000
0000
0000
0000
0000
,  // measure 5
0000
0000
0000
0030
0100
0001
0020
0000
,  // measure 6
0000
0200
0000
0000
0000
0000
0000
0000
,  // measure 7
0000
0000
0330
0000
0100
1000
0002
0000
,  // measure 8
0000
0020
0000
0000
0000
0000
0000
0000
,  // measure 9
0000
0000
0000
0000
0033
0100
0001
0010
,  // measure 10
1000
0000
0100
0010
0001
0100
1000
0000
,  // measure 11
0000
0000
0100
0010
0001
0100
1000
0000
,  // measure 12
0200
0000
0000
0000
,  // measure 13
0000
0000
0000
0000
0300
0001
0010
0100
,  // measure 14
0001
0000
0100
0010
0001
0100
1000
0000
,  // measure 15
0000
0000
0001
0010
0100
0010
0100
0000
,  // measure 16
0200
0000
0000
0000
,  // measure 17
0020
0000
0000
0000
0330
0000
0100
0001
0010
0000
0010
0000
0000
0000
0001
0000
,  // measure 18
0010
0100
0010
0001
0100
0010
0001
1000
,  // measure 19
0001
0000
0100
0000
0010
0000
0001
0100
1000
0000
0100
0000
0010
0000
0001
0000
,  // measure 20
0100
0010
0001
0100
0001
0100
0010
0001
,  // measure 21
1000
0001
0100
0010
0001
0100
0001
0100
,  // measure 22
1000
0100
0010
0100
0001
0100
0010
0001
,  // measure 23
0100
0001
0100
0010
0001
0100
0001
0100
,  // measure 24
0010
0001
1000
0001
0100
0010
0001
0100
,  // measure 25
0001
0000
0100
0000
0010
0000
0001
0100
1000
0000
0010
0000
0100
0000
0002
0000
,  // measure 26
0003
0010
0001
1000
0100
0000
0010
0001
,  // measure 27
0100
0001
1000
0100
0000
0001
0100
0010
,  // measure 28
0000
0001
0100
0001
1000
0000
0100
0000
,  // measure 29
0010
0001
0100
1010
0000
0011
0000
0101
,  // measure 30
0101
0101
0100
0100
0010
0010
0100
0100
,  // measure 31
0010
0010
0100
0100
0010
0010
0001
0001
,  // measure 32
2000
3100
0020
0130
0002
0013
0200
0310
,  // measure 33
0002
0013
0200
0310
0200
0301
2000
3100
,  // measure 34
0010
0010
0100
0100
0001
0001
0010
0010
,  // measure 35
0100
0100
0010
0010
0100
0100
1000
1000
,  // measure 36
0200
0310
0200
0301
0020
0130
0002
1003
,  // measure 37
0020
0031
0200
0310
0001
0001
1000
0000
,  // measure 38
0000
0200
0000
0000
0000
0000
0000
0000
,  // measure 39
0000
0000
0300
0000
0001
0100
2000
0000
,  // measure 40
0000
0200
0000
0000
0000
0000
0000
0000
,  // measure 41
0000
0000
0000
3300
0001
0100
2000
0000
,  // measure 42
0000
0200
0000
0000
0000
0000
0000
0000
,  // measure 43
0000
0000
0000
3300
0001
0100
2000
0000
,  // measure 44
0000
0020
0000
0000
0000
0000
0000
0000
,  // measure 45
0000
0000
0000
0000
3030
0010
0001
1000
,  // measure 46
0100
0000
0001
0010
1000
0001
0100
0000
,  // measure 47
0000
0000
0010
0001
0100
0001
1000
0000
,  // measure 48
0200
0000
0000
0000
,  // measure 49
0000
0000
0000
0000
0300
0010
0100
0001
,  // measure 50
1000
0000
0001
0100
0001
0100
1000
0000
,  // measure 51
0000
0000
0001
1000
0001
0100
0010
0000
,  // measure 52
0200
0000
0000
0000
,  // measure 53
0020
0000
0000
0000
0330
0000
1000
0100
0001
0000
0010
0000
0000
0000
0100
0000
,  // measure 54
0010
0100
0010
0100
0100
0010
0001
1000
,  // measure 55
0001
0000
0100
0000
0010
0000
0001
0100
1000
0000
0010
0000
0001
0000
0100
0000
,  // measure 56
0010
0001
0100
0010
0001
0100
0001
0100
,  // measure 57
0010
0001
1000
0001
0100
0010
0001
0100
,  // measure 58
0001
0100
0010
0100
1000
0001
0010
0100
,  // measure 59
0001
0010
0100
0001
1000
0001
0010
0100
,  // measure 60
0001
1000
0001
0010
0100
0001
1000
0001
,  // measure 61
0010
0000
0100
0000
0001
0000
1000
0010
0001
0000
0010
0000
0100
0000
0001
0000
,  // measure 62
0000
0100
0001
0010
0100
0000
0010
0001
,  // measure 63
0100
0001
1000
0100
0000
0001
0010
0100
,  // measure 64
0100
0001
1000
0001
0100
0000
0010
0000
,  // measure 65
0001
0100
0010
0101
0000
0011
0000
0101
,  // measure 66
0101
0101
1000
1000
0100
0100
0010
0010
,  // measure 67
0001
0001
0100
0100
0010
0010
0100
0100
,  // measure 68
0200
0301
0020
0130
0002
1003
0200
0301
,  // measure 69
0020
0130
0002
1003
0200
0301
0020
0130
,  // measure 70
0001
0001
0010
0010
0100
0100
1000
1000
,  // measure 71
0100
0100
0010
0010
0100
0100
0010
0010
,  // measure 72
0200
0310
0200
0310
2000
3100
0200
1300
,  // measure 73
0020
0130
0020
0031
0200
0310
0200
0301
,  // measure 74
0010
0100
0001
1000
0001
0010
0100
0001
,  // measure 75
1000
0001
0010
0100
0001
1000
0001
0010
,  // measure 76
0100
0001
1000
0001
0010
0100
0001
1000
,  // measure 77
0001
0010
0100
0001
1000
0001
0010
0100
,  // measure 78
0001
1000
0001
0010
0100
0001
0100
0001
,  // measure 79
1000
0001
0010
0100
0001
1000
0001
0010
,  // measure 80
0100
0001
1000
0001
0010
0100
0001
0100
,  // measure 81
0001
1000
0001
0010
0100
0001
0010
0100
,  // measure 82
0002
0000
0000
0000
,  // measure 83
0000
0000
0000
0003
,  // measure 84
0200
0000
0000
0000
,  // measure 85
0000
0000
0000
0300
,  // measure 86
0020
0000
0000
0000
,  // measure 87
0000
0000
0000
0030
;
