#VERSION:0.83;
#TITLE:pretty faces;
#SUBTITLE:;
#ARTIST:Paper Money;
#TITLETRANSLIT:;
#SUBTITLETRANSLIT:;
#ARTISTTRANSLIT:;
#GENRE:;
#ORIGIN:;
#CREDIT:;
#BANNER:;
#BACKGROUND:;
#PREVIEWVID:;
#JACKET:;
#CDIMAGE:;
#DISCIMAGE:;
#LYRICSPATH:;
#CDTITLE:;
#MUSIC:Pretty Faces.ogg;
#OFFSET:0.000000;
#SAMPLESTART:100.059883;
#SAMPLELENGTH:12.000000;
#SELECTABLE:YES;
#BPMS:0.000=100.000;
#STOPS:;
#DELAYS:;
#WARPS:;
#TIMESIGNATURES:0.000=4=4;
#TICKCOUNTS:0.000=4;
#COMBOS:0.000=1;
#SPEEDS:0.000=1.000=0.000=0;
#SCROLLS:0.000=1.000;
#FAKES:;
#LABELS:0.000=Song Start;
#BGCHANGES:;
#KEYSOUNDS:;
#ATTACKS:
;

//---------------dance-single - ----------------
#NOTEDATA:;
#CHARTNAME:;
#STEPSTYPE:dance-single;
#DESCRIPTION:;
#CHARTSTYLE:;
#DIFFICULTY:Hard;
#METER:10;
#RADARVALUES:0.346417,0.428475,0.013434,0.053738,0.087324,361.000000,359.000000,2.000000,8.000000,0.000000,0.000000,0.000000,0.000000,0.000000,0.346417,0.428475,0.013434,0.053738,0.087324,361.000000,359.000000,2.000000,8.000000,0.000000,0.000000,0.000000,0.000000,0.000000;
#CREDIT:;
#NOTES:
// measure 0
0000
0000
0000
0000
,  // measure 1
0000
0000
0000
0000
,  // measure 2
0101
0000
0000
0010
0100
0010
0001
0100
,  // measure 3
0000
0010
0000
0001
0100
0001
0100
1000
,  // measure 4
0000
0000
0000
0001
1000
0001
0100
0001
,  // measure 5
0000
0100
0000
0010
0001
0100
1000
0000
,  // measure 6
1001
0000
0000
0001
0100
0001
0100
1000
,  // measure 7
0000
0001
0000
0001
0100
0001
0100
1000
,  // measure 8
0000
0000
0000
0001
0100
0001
0100
1000
,  // measure 9
0000
0010
0000
0001
0100
0001
0100
0000
,  // measure 10
0010
0001
1000
0001
0100
0000
0000
0000
,  // measure 11
0100
0010
0100
0000
0001
0000
1000
0000
0100
0000
0000
0000
0000
0000
0000
0000
,  // measure 12
0001
0100
0001
0100
2000
0000
3000
0100
,  // measure 13
0010
0001
1000
0001
0100
0000
0010
0000
,  // measure 14
0100
0001
1000
0000
0100
0000
0010
0000
0200
0000
0000
0000
0000
0000
0000
0000
,  // measure 15
0300
0100
0001
0100
2000
0000
3000
0000
,  // measure 16
0100
0001
1000
0000
0100
0000
0010
0000
0200
0000
0000
0000
0300
0000
0010
0000
,  // measure 17
0001
0000
1000
0000
0001
0000
0100
0000
0010
0000
0000
0000
0010
0000
1000
0001
,  // measure 18
0100
0000
0000
0010
0001
0100
0001
1000
,  // measure 19
0000
0100
0000
0010
0001
1000
0001
0100
,  // measure 20
0000
0000
0000
0001
0100
0001
0100
1000
,  // measure 21
0000
1000
0000
0010
0001
0100
1000
0000
,  // measure 22
0100
0001
0010
0000
0001
0000
0100
0000
0001
0000
0100
0010
0001
0000
1000
0000
,  // measure 23
0100
0001
0010
0000
0001
0000
0100
0000
0010
0000
0001
1000
0100
0000
0100
0000
,  // measure 24
0010
0001
0100
0000
0001
0000
0100
0000
0010
0000
0001
1000
0100
0000
0010
0000
,  // measure 25
0001
1000
0001
0100
0010
0000
0001
0100
,  // measure 26
0001
0100
0001
0100
0010
0000
0000
0000
,  // measure 27
0001
0100
0001
0100
1000
0000
0000
0000
,  // measure 28
0100
0010
0100
0000
0001
0000
1000
0000
0100
0000
0000
0000
0100
0000
0010
0000
,  // measure 29
0001
1000
0001
0100
1000
0000
0000
0000
,  // measure 30
0001
0100
0001
1000
0100
0000
0010
0000
,  // measure 31
0001
1000
0001
0100
0010
0000
1000
0100
,  // measure 32
0001
0010
0001
0100
0010
0000
0100
0010
,  // measure 33
0001
0000
1000
0000
0001
0000
0100
0000
0001
0000
0000
0000
0100
0000
0010
0100
,  // measure 34
0001
0000
0000
0100
0010
0001
0100
1000
,  // measure 35
0000
0010
0000
0001
0100
0001
0100
1000
,  // measure 36
0000
0000
0000
0001
0100
0001
0100
1000
,  // measure 37
0000
0010
0000
0100
0001
0100
1000
0000
,  // measure 38
0100
0010
0100
0000
0001
0000
1000
0000
0100
0000
0001
0100
0010
0000
0100
0000
,  // measure 39
0001
0100
0010
0000
0001
0000
1000
0000
0100
0000
0001
0010
0100
0000
0001
0000
,  // measure 40
1000
0010
0100
0000
0001
0000
0010
0000
0100
0000
0001
1000
0100
0000
0001
0000
,  // measure 41
0010
0010
0001
0100
0001
0000
0100
0010
,  // measure 42
0000
1000
0000
0100
,  // measure 43
0000
0010
0000
0010
,  // measure 44
0010
0001
0100
0001
0100
0000
1000
0000
,  // measure 45
0001
1000
0001
0100
0001
0000
0100
0001
,  // measure 46
0010
0001
0100
1000
0001
0000
0100
0000
,  // measure 47
0000
0000
0000
0000
0100
0000
0010
0000
0000
0000
0000
0000
1000
0100
1000
0100
,  // measure 48
1000
0000
0000
0001
0100
0001
0100
1000
,  // measure 49
0000
0010
0000
0100
0010
0001
0100
1000
,  // measure 50
0010
0001
0100
0010
0001
0100
0001
0100
,  // measure 51
1000
0100
0010
0100
0001
0100
1000
0001
,  // measure 52
0100
0010
0001
0000
0100
0000
0001
0000
0100
0000
1000
0100
0001
0000
0010
0000
,  // measure 53
0100
0010
0100
0000
0001
0000
1000
0000
0100
0000
0001
0010
0100
0000
0001
0000
,  // measure 54
1000
0010
0100
0000
0001
0000
1000
0000
0100
0000
0010
0100
0001
0000
0010
0000
,  // measure 55
0100
0010
0001
0100
0010
0000
0001
0100
,  // measure 56
0020
0000
0000
0030
,  // measure 57
0200
0000
0000
0300
,  // measure 58
0002
0000
0000
0003
,  // measure 59
0020
0000
0000
0000
,  // measure 60
0000
0000
0000
0030
;
