#VERSION:0.83;
#TITLE:popstar diva;
#SUBTITLE:;
#ARTIST:Bluchew;
#TITLETRANSLIT:;
#SUBTITLETRANSLIT:;
#ARTISTTRANSLIT:;
#GENRE:;
#ORIGIN:;
#CREDIT:;
#BANNER:;
#BACKGROUND:;
#PREVIEWVID:;
#JACKET:;
#CDIMAGE:;
#DISCIMAGE:;
#LYRICSPATH:;
#CDTITLE:;
#MUSIC:POPSTARDIVA.ogg;
#OFFSET:0.000000;
#SAMPLESTART:100.059883;
#SAMPLELENGTH:12.000000;
#SELECTABLE:YES;
#BPMS:0.000=115.000;
#STOPS:;
#DELAYS:;
#WARPS:;
#TIMESIGNATURES:0.000=4=4;
#TICKCOUNTS:0.000=4;
#COMBOS:0.000=1;
#SPEEDS:0.000=1.000=0.000=0;
#SCROLLS:0.000=1.000;
#FAKES:;
#LABELS:0.000=Song Start;
#BGCHANGES:;
#KEYSOUNDS:;
#ATTACKS:
;

//---------------dance-single - ----------------
#NOTEDATA:;
#CHARTNAME:;
#STEPSTYPE:dance-single;
#DESCRIPTION:;
#CHARTSTYLE:;
#DIFFICULTY:Hard;
#METER:11;
#RADARVALUES:0.468106,0.597040,0.538866,0.010886,0.087090,602.000000,503.000000,99.000000,2.000000,0.000000,0.000000,0.000000,0.000000,0.000000,0.468106,0.597040,0.538866,0.010886,0.087090,602.000000,503.000000,99.000000,2.000000,0.000000,0.000000,0.000000,0.000000,0.000000;
#CREDIT:;
#NOTES:
// measure 0
0000
0000
0000
0000
,  // measure 1
0000
0000
0000
0000
,  // measure 2
0001
0100
0010
0001
0100
0001
0100
0000
,  // measure 3
1000
0010
0001
0100
0001
0100
1000
0000
,  // measure 4
0100
0010
0001
0100
0001
0100
1000
0000
,  // measure 5
0100
0010
0001
0100
0001
0100
1000
0000
,  // measure 6
0100
0010
0001
0100
0001
0100
1000
0000
,  // measure 7
0100
0010
0001
0100
0001
0100
1000
0000
,  // measure 8
0100
0010
0001
0100
0001
0100
1000
0000
,  // measure 9
0100
0010
0001
1000
0001
0100
0010
0000
,  // measure 10
1001
0000
0000
0100
0001
0100
1001
0000
,  // measure 11
1001
0000
0000
0110
0000
1010
0000
0110
,  // measure 12
0000
0011
0000
0101
0000
0110
0000
0011
,  // measure 13
0000
0101
0000
0011
0000
0100
0001
0100
,  // measure 14
0101
0000
0000
0001
0100
0010
1001
0000
,  // measure 15
1001
0000
0000
0001
0100
0010
1001
0000
,  // measure 16
0101
0000
0010
0100
0001
0100
1010
0000
,  // measure 17
0101
0000
0010
0100
0001
0100
1001
0000
,  // measure 18
0000
0000
0000
0000
0010
0100
0001
0000
1001
0000
0000
0000
0010
0001
0100
0000
,  // measure 19
0110
0000
0000
0000
0010
0001
0100
0000
0010
0001
0100
0000
0011
0000
0000
0000
,  // measure 20
0000
0000
0000
0000
1000
0100
0001
0000
0110
0000
0000
0000
0010
0100
0001
0000
,  // measure 21
0110
0000
0000
0000
0001
0100
0010
0000
0001
0000
0100
0000
0001
0000
0100
0000
,  // measure 22
0000
0100
0010
0001
1000
0001
0100
0000
,  // measure 23
0100
0010
0001
1000
0001
0100
0010
0010
,  // measure 24
0000
0000
0000
0000
0000
0001
0100
0010
,  // measure 25
0100
0100
0010
0001
0100
0001
0100
0010
,  // measure 26
1001
0001
0010
0001
0100
0001
0100
0000
,  // measure 27
0010
0100
0001
0100
0001
1000
0100
0000
,  // measure 28
0000
0001
1000
0001
0100
0001
0100
0000
,  // measure 29
0010
0001
0100
0001
1000
0000
0100
0000
,  // measure 30
0101
0000
0000
0101
0000
0101
0000
0110
,  // measure 31
0000
1100
0000
0110
0000
0101
0000
0101
,  // measure 32
0000
0010
0001
0100
0000
0001
0100
0010
,  // measure 33
0000
1100
0000
0101
0000
0101
0000
0000
,  // measure 34
0110
0000
0000
0100
0001
0100
1001
0000
,  // measure 35
0110
0000
0010
0001
1000
0001
0100
0010
,  // measure 36
0110
0010
0001
0100
0001
0100
1000
0100
,  // measure 37
0001
0010
0100
0000
0001
0000
0100
0000
0010
0000
0010
0000
0100
0000
1000
0000
,  // measure 38
0000
0000
0000
0010
0001
0100
1001
0000
,  // measure 39
0110
0010
0001
0100
0001
1000
0100
0010
,  // measure 40
0001
1000
0001
0100
0010
0010
0100
0010
,  // measure 41
0100
0001
0100
0010
0001
0100
0001
1000
,  // measure 42
0110
0000
0000
0000
0110
0000
0000
0000
0100
0001
1000
0100
0001
0000
0000
0000
,  // measure 43
0001
0100
0010
0001
1000
0001
0100
0010
0001
0100
0001
1000
0100
0000
0000
0000
,  // measure 44
0010
0001
1000
0001
0100
0000
0000
0000
0100
0010
0001
0100
1000
0000
0000
0000
,  // measure 45
0100
0010
0001
1000
0001
0100
0010
0001
0100
0000
1000
0000
0100
0000
0000
0000
,  // measure 46
0000
0000
0001
0100
0001
1000
0100
0000
,  // measure 47
0001
0100
0001
0100
0001
1000
0100
0010
,  // measure 48
0001
0000
0000
0000
0000
0010
0001
0100
,  // measure 49
1000
0001
0100
0000
0001
0100
0001
0100
,  // measure 50
1001
0010
0001
0100
0001
0100
1000
0000
,  // measure 51
0100
0010
0001
0100
0001
0100
1000
0000
,  // measure 52
0000
0010
0001
0100
0001
0100
1000
0000
,  // measure 53
0010
0001
0100
0001
0100
0000
1000
0000
,  // measure 54
1001
0000
0000
0101
0000
0110
0000
0110
,  // measure 55
0000
1100
0000
0101
0000
0101
0000
0110
,  // measure 56
0000
0001
0010
0100
0000
0001
0100
1000
,  // measure 57
0000
0101
0000
0101
0000
0101
0000
0000
,  // measure 58
0010
0000
0001
0010
0101
0000
0001
1000
,  // measure 59
0101
0000
0010
0001
1000
0001
0101
0000
,  // measure 60
0011
0000
0000
0000
1000
0100
0001
0000
0101
0000
0000
0000
0010
0001
0100
0000
,  // measure 61
1001
0000
0000
0000
0001
0100
0010
0000
0001
0000
0100
0000
0001
0000
0100
0000
,  // measure 62
0101
0000
0000
0000
0110
0000
0000
0000
0001
0100
1000
0000
0110
0000
0000
0000
,  // measure 63
0010
0001
0100
0000
0001
0010
0100
0000
0001
0100
1000
0000
0110
0000
0000
0000
,  // measure 64
0101
0000
0000
0000
0101
0000
0000
0000
0001
0100
0010
0000
0101
0000
0000
0000
,  // measure 65
0110
0000
0010
0001
1000
0001
0110
0000
,  // measure 66
0110
0010
0001
1000
0001
0100
0001
0000
,  // measure 67
0100
0010
0001
1000
0001
0100
1000
0000
,  // measure 68
1001
1001
0000
0001
0010
0100
1000
0000
,  // measure 69
0010
0001
0100
0010
0100
0000
1000
0000
,  // measure 70
0110
0000
0000
0101
0000
0101
0000
1100
,  // measure 71
0000
0110
0000
0101
0000
0110
0000
0110
,  // measure 72
0000
0001
0100
1000
0000
0100
0010
0100
,  // measure 73
0000
0110
0000
0101
0000
0110
0000
0000
,  // measure 74
0110
0010
0001
0100
0001
0100
1000
0000
,  // measure 75
0100
0010
0001
0100
0001
0100
1000
0000
,  // measure 76
0000
0010
0001
0100
0001
1000
0100
0000
,  // measure 77
0001
0100
0001
0100
0001
1000
0100
0000
,  // measure 78
1001
0000
0000
0101
0000
0101
0000
0110
,  // measure 79
0000
0110
0000
1100
0000
0101
0000
0110
,  // measure 80
0000
0100
0001
0100
0000
0100
0001
0100
,  // measure 81
0000
0101
0000
1100
0000
0110
0000
0000
,  // measure 82
0220
0000
0000
0000
,  // measure 83
0000
0000
0000
0000
,  // measure 84
0000
0000
0000
0000
,  // measure 85
0000
0000
0000
0000
,  // measure 86
0000
0000
0000
0000
,  // measure 87
0000
0000
0000
0330
;
