#VERSION:0.83;
#TITLE:pop 1;
#SUBTITLE:;
#ARTIST:Good Humans;
#TITLETRANSLIT:;
#SUBTITLETRANSLIT:;
#ARTISTTRANSLIT:;
#GENRE:;
#ORIGIN:;
#CREDIT:;
#BANNER:;
#BACKGROUND:;
#PREVIEWVID:;
#JACKET:;
#CDIMAGE:;
#DISCIMAGE:;
#LYRICSPATH:;
#CDTITLE:;
#MUSIC:Pop 1.ogg;
#OFFSET:0.000000;
#SAMPLESTART:100.059883;
#SAMPLELENGTH:12.000000;
#SELECTABLE:YES;
#BPMS:0.000=122.000;
#STOPS:0.000=0.100;
#DELAYS:;
#WARPS:;
#TIMESIGNATURES:0.000=4=4;
#TICKCOUNTS:0.000=4;
#COMBOS:0.000=1;
#SPEEDS:0.000=1.000=0.000=0;
#SCROLLS:0.000=1.000;
#FAKES:;
#LABELS:0.000=Song Start;
#BGCHANGES:;
#KEYSOUNDS:;
#ATTACKS:
;

//---------------dance-single - ----------------
#NOTEDATA:;
#CHARTNAME:;
#STEPSTYPE:dance-single;
#DESCRIPTION:;
#CHARTSTYLE:;
#DIFFICULTY:Hard;
#METER:10;
#RADARVALUES:0.387318,0.422499,0.000000,0.043629,0.018698,435.000000,435.000000,0.000000,7.000000,0.000000,0.000000,0.000000,0.000000,0.000000,0.387318,0.422499,0.000000,0.043629,0.018698,435.000000,435.000000,0.000000,7.000000,0.000000,0.000000,0.000000,0.000000,0.000000;
#CREDIT:;
#NOTES:
// measure 0
0000
0000
0000
0000
,  // measure 1
0000
0000
0000
0000
,  // measure 2
0000
0000
0000
0000
,  // measure 3
0000
0000
0000
0000
,  // measure 4
0001
0000
0000
0100
0000
0000
0010
0000
0000
0000
0000
0000
0100
0000
0001
0000
,  // measure 5
0010
0000
0001
0000
0100
0010
0100
0001
,  // measure 6
0200
0000
0000
0000
,  // measure 7
0000
0000
0300
0001
,  // measure 8
1000
0000
0000
0010
0100
0010
0001
0100
,  // measure 9
1000
0000
0000
0010
0001
0100
0001
0100
,  // measure 10
1000
0000
0000
0010
0001
0100
0001
0100
,  // measure 11
1000
0000
0000
0010
0001
0100
0001
0100
,  // measure 12
1000
0000
0000
0010
0001
0100
0001
0100
,  // measure 13
1000
0000
0000
0010
0001
0100
0001
0100
,  // measure 14
2000
0000
0000
0000
,  // measure 15
0000
0000
3000
0100
,  // measure 16
0010
0000
0000
0010
0001
0100
0001
0100
,  // measure 17
1000
0000
0000
0010
0001
0100
0001
0100
,  // measure 18
1000
0000
0000
0010
0001
0100
0001
0100
,  // measure 19
1000
0000
0000
0010
0001
0100
0001
0100
,  // measure 20
1000
0000
0000
0010
0001
0100
0001
0100
,  // measure 21
1000
0000
0000
0010
0001
0100
0001
0100
,  // measure 22
2000
0000
0000
0000
,  // measure 23
0000
0000
3000
0000
1000
1000
1000
1000
,  // measure 24
0100
0010
0001
0100
0001
0100
0010
0001
,  // measure 25
0100
0001
0100
0010
0001
0100
0001
0100
,  // measure 26
0010
0001
1000
0001
0100
0010
0001
0100
,  // measure 27
0001
0100
0010
0001
0100
0001
0100
0010
,  // measure 28
0001
0100
0001
0100
0010
0001
0100
0001
,  // measure 29
0100
0010
0001
1000
0001
0100
0010
0001
,  // measure 30
0100
0001
0100
0010
0001
1000
0001
0100
,  // measure 31
0010
0001
0100
0001
0010
0100
0001
0000
,  // measure 32
0100
0000
0000
0001
0100
0010
0001
0100
,  // measure 33
0010
0001
0100
0001
0100
0010
0001
0100
,  // measure 34
0001
1000
0100
0010
0100
0010
0001
0100
,  // measure 35
0001
0100
0010
0001
1000
0001
0100
0010
,  // measure 36
0001
0100
0001
0100
0010
0001
0100
0001
,  // measure 37
0100
0010
0001
1000
0001
0100
0010
0001
,  // measure 38
0200
0000
0000
0000
,  // measure 39
0000
0000
0000
0000
,  // measure 40
0300
0000
0000
0000
0100
0000
0001
0000
0000
0000
0000
0000
0000
0000
1000
0100
,  // measure 41
0001
0010
0100
0000
0010
0000
0100
0000
0001
0000
0000
0000
0010
0000
0000
0000
,  // measure 42
0000
0000
0000
0000
0001
0000
0100
0000
0000
0000
0000
0000
0000
0000
0100
0001
,  // measure 43
1000
0001
0010
0000
0100
0000
0010
0000
0001
0000
0000
0000
0100
0000
0000
0000
,  // measure 44
0000
0000
0001
0100
0000
0001
0100
0000
,  // measure 45
0000
0000
0100
0010
0001
1000
0100
0000
,  // measure 46
0000
0000
0000
0000
1000
0100
0001
0000
0010
0000
0100
0000
0001
0000
0000
0000
,  // measure 47
0001
0001
0001
0001
0001
0000
0100
0000
,  // measure 48
0100
0000
0100
0010
0001
1000
0001
0100
,  // measure 49
1000
0000
0100
0010
0001
1000
0001
0100
,  // measure 50
0010
0000
0100
0010
0001
1000
0001
0100
,  // measure 51
1000
0000
0100
0010
0001
1000
0001
0100
,  // measure 52
0010
0000
0100
0010
0001
1000
0001
0100
,  // measure 53
1000
0000
0100
0010
0001
1000
0001
0100
,  // measure 54
2000
0000
0000
0000
,  // measure 55
0000
0000
3000
0010
,  // measure 56
0010
0000
0000
0010
0001
1000
0001
0100
,  // measure 57
1000
0000
0000
0010
0001
1000
0001
0100
,  // measure 58
1000
0000
0000
0010
0001
1000
0001
0100
,  // measure 59
1000
0000
0000
0010
0001
0100
0001
1000
,  // measure 60
0100
0000
0000
0010
0001
0100
0001
0100
,  // measure 61
1000
0000
0000
0001
0100
0010
0001
0100
,  // measure 62
0020
0000
0000
0000
,  // measure 63
0000
0000
0030
0010
,  // measure 64
0100
0000
0000
0001
0100
0010
0001
0100
,  // measure 65
0001
0100
0010
0001
0100
0010
0001
1000
,  // measure 66
0001
0100
0010
0001
0100
0001
0100
0010
,  // measure 67
0100
0001
1000
0001
0010
0100
0001
0010
,  // measure 68
0100
0100
0010
0001
0100
0001
0100
0010
,  // measure 69
0001
0100
0001
0100
0010
0001
1000
0001
,  // measure 70
0100
0010
0001
0100
0001
0100
0010
0001
,  // measure 71
0100
0001
0100
0010
0001
0100
0001
0000
,  // measure 72
1000
0000
0000
0100
0100
0010
0001
0100
,  // measure 73
0010
0001
0100
0001
0100
0010
0001
0100
,  // measure 74
0001
0100
0010
0001
1000
0001
0100
0010
,  // measure 75
0001
0100
0001
0100
0010
0001
0100
0001
,  // measure 76
0100
0010
0001
0100
0001
0100
0010
0001
,  // measure 77
1000
0001
0100
0010
0001
0100
0001
0100
,  // measure 78
2000
0000
0000
0000
,  // measure 79
0000
0000
0000
3000
;
