#TITLE:poison;
#SUBTITLE:;
#ARTIST:Bell Biv DeVoe;
#TITLETRANSLIT:;
#SUBTITLETRANSLIT:;
#ARTISTTRANSLIT:;
#GENRE:;
#CREDIT:;
#BANNER:;
#BACKGROUND:;
#LYRICSPATH:;
#CDTITLE:;
#MUSIC:BELL BIV DEVOE POISON.ogg;
#OFFSET:0.000000;
#SAMPLESTART:100.059883;
#SAMPLELENGTH:12.000000;
#SELECTABLE:YES;
#BPMS:0.000000=112.000000
;
#STOPS:0.000000=0.400000,
263.000000=0.200000,
364.000000=2.200000
;
#BGCHANGES:;
#KEYSOUNDS:;
#ATTACKS:;

//---------------dance-single - ----------------
#NOTES:
     dance-single:
     :
     Hard:
     12:
     0.455866,0.578908,0.107392,0.126569,0.423813,832.000000,804.000000,28.000000,33.000000,0.000000,0.000000,0.455866,0.578908,0.107392,0.126569,0.423813,832.000000,804.000000,28.000000,33.000000,0.000000,0.000000:
// measure 0
0000
0000
0000
0000
,  // measure 1
0000
0000
0000
0000
,  // measure 2
0000
0000
0000
0000
,  // measure 3
0000
0000
0000
0000
,  // measure 4
0010
0000
0010
0000
0000
0000
0000
0000
0000
0000
0000
0000
0010
0001
0100
0001
,  // measure 5
0100
0000
0010
0000
0100
0001
1000
0000
0000
0000
0000
0000
0000
0000
0000
0000
,  // measure 6
0001
0100
0001
1000
0100
0000
0000
0000
0001
0010
0001
0000
0010
0000
0000
0000
,  // measure 7
0001
0100
1000
0000
0000
0100
0001
0010
0000
0001
0010
0000
0001
0000
0000
0000
,  // measure 8
0100
0000
0001
1000
0100
0000
0001
0100
0001
0010
0100
0000
1001
0000
0000
0000
,  // measure 9
0101
0100
0010
0100
,  // measure 10
1000
0100
0002
0000
0000
0000
0003
0000
,  // measure 11
0010
0001
1000
0001
0100
0000
0001
1000
,  // measure 12
0101
0000
0000
0000
1000
0100
0001
0100
0000
0000
0100
0010
0001
0100
0000
0000
,  // measure 13
1000
0000
0001
0100
0001
0100
0001
0000
,  // measure 14
0001
0100
0002
0000
0000
0000
0003
0100
,  // measure 15
0010
0001
1000
0001
0100
0010
0100
0001
,  // measure 16
1010
0000
0000
0000
0010
0001
0100
0010
0000
0000
0001
0100
0010
0100
0000
0000
,  // measure 17
1000
0100
0010
0001
,  // measure 18
0001
0100
2000
0000
0000
0000
3000
0100
,  // measure 19
0001
0010
0100
0001
0100
0000
0010
0001
,  // measure 20
1001
0000
0000
0000
1000
0001
0100
0010
0000
0000
0100
0010
0100
0010
0000
0000
,  // measure 21
1000
0100
0010
0001
,  // measure 22
0020
0000
0200
0000
0000
0000
0330
0100
,  // measure 23
0010
0001
0100
0010
0001
1000
0001
0100
,  // measure 24
1000
0000
0000
0000
0100
0001
1000
0001
0000
0000
0010
0100
0001
0100
0000
0000
,  // measure 25
1000
0000
0000
0000
0100
0000
0010
0100
0001
0000
0000
0000
0010
0000
0000
0000
,  // measure 26
0100
0000
0010
0000
0001
0100
1000
0000
,  // measure 27
0001
1000
0001
0000
0200
0000
0000
0000
,  // measure 28
0300
0001
0100
0010
,  // measure 29
0001
0000
0100
0000
0010
0000
0001
0100
,  // measure 30
1000
0000
0010
0000
0001
0100
1000
0000
,  // measure 31
1000
0100
0001
0000
0200
0000
0000
0000
,  // measure 32
0300
0000
0000
0000
0010
0000
0000
0100
0000
0000
0000
0010
0000
0000
0100
0000
,  // measure 33
0100
0000
1000
0000
0100
0000
0001
1000
0000
0100
0000
0000
0001
0000
0010
0000
,  // measure 34
0200
0020
0000
0330
,  // measure 35
0110
0000
0000
0000
0100
0001
1000
0001
0000
0000
0001
0100
0010
0100
0000
0000
,  // measure 36
0110
0000
0000
0000
0100
0001
1000
0001
0000
0000
0001
0100
0010
0100
0001
0100
,  // measure 37
1000
0010
0100
0000
0001
0000
1000
0100
0001
0010
0100
0000
0001
0000
1000
0000
,  // measure 38
0200
0020
0000
0330
,  // measure 39
1001
0000
1001
0000
0010
0100
0001
1000
0000
0000
0001
0100
0001
0100
0000
0000
,  // measure 40
0010
0000
0100
0001
1000
0000
0100
0001
0010
0100
0001
0000
1001
0000
0000
0000
,  // measure 41
0100
0000
0001
0000
1000
0000
0100
0001
0000
0000
0100
0000
0100
0000
0001
0000
,  // measure 42
2000
0000
0200
0000
0000
0000
3300
0100
,  // measure 43
0001
0010
0100
0010
0001
0000
0100
0000
,  // measure 44
1001
0000
0000
0000
0100
0001
0010
0100
0000
0000
0010
0100
0001
1000
0100
0001
,  // measure 45
0010
0000
0100
0001
1000
0000
0100
0000
,  // measure 46
0020
0000
0200
0000
0000
0000
0330
0010
,  // measure 47
1000
0000
0100
0001
0100
0000
0000
0000
0010
0000
0000
0000
0100
0000
0001
0000
,  // measure 48
1001
0000
0000
0000
0100
0010
0100
0001
0000
0000
0010
0100
0001
1000
0000
0000
,  // measure 49
0010
0000
0100
0001
0000
0000
1000
0000
,  // measure 50
0220
0000
0000
0000
0000
0000
0000
0000
0330
0000
0000
0000
0100
0000
0000
0010
,  // measure 51
0001
0100
0010
0000
0001
1000
0100
0000
,  // measure 52
1001
0000
0000
0000
0001
0000
0100
1000
,  // measure 53
0100
0000
0001
0100
0010
0000
0100
0001
,  // measure 54
1000
0000
0000
0000
0001
0000
0100
0000
0000
0010
0000
0000
0000
0000
0000
0000
,  // measure 55
0001
0000
0100
0000
0001
0000
0100
0000
1000
0000
0000
0100
0000
0000
0000
0000
,  // measure 56
1000
0001
0000
0000
0100
0000
1000
0000
0001
0000
0010
0000
0100
0000
0010
0000
,  // measure 57
0100
1000
0001
0100
,  // measure 58
1000
0000
0100
0000
0001
0010
0100
0000
0001
0010
0100
0000
0001
0000
0000
0000
,  // measure 59
0001
0100
0001
0100
1000
0100
0000
0001
0010
0000
0001
1000
0100
0010
0100
0001
,  // measure 60
1000
0000
0000
0000
0100
0000
0010
0000
0001
1000
0100
0000
0010
0000
0000
0000
,  // measure 61
1000
0100
0001
0010
0000
0100
0001
1000
0000
0100
0001
0000
0010
0000
0000
0001
,  // measure 62
1000
0000
0100
0000
0001
0000
1000
0100
0001
0000
0010
0100
0001
0000
0000
1000
,  // measure 63
0000
0100
0001
1000
0100
0001
0010
0000
0000
0100
0001
0000
0010
0100
0000
0001
,  // measure 64
0000
1000
0100
0001
0000
0010
0100
0001
0000
1000
0000
0000
0010
0100
0001
1000
,  // measure 65
0001
0000
0100
0001
1000
0000
0100
0001
0010
0000
0100
0000
0000
0000
0000
0000
,  // measure 66
0001
0000
0000
0000
0010
0100
0001
1000
0000
0000
0100
0001
0100
0001
0000
0000
,  // measure 67
1000
0000
1000
0000
0100
0001
0100
0001
0000
0010
0100
0001
1000
0000
0000
0000
,  // measure 68
0100
0000
0100
0000
0010
0001
0100
1000
0000
0000
0010
0100
0001
0100
0000
0000
,  // measure 69
0100
0000
0100
0000
0100
0001
0100
1000
0000
0000
0100
0001
0010
0100
0000
0000
,  // measure 70
0002
2000
0000
3003
,  // measure 71
0100
0000
0100
0000
0001
0010
0100
0001
0000
0000
1000
0100
0001
0100
0000
0000
,  // measure 72
0010
0000
0100
0001
1000
0000
0100
0001
0100
0010
0100
0000
1001
0000
0000
0000
,  // measure 73
0010
0000
0100
0001
0100
0000
0010
0100
0001
1000
0001
0000
1001
0000
0000
0000
,  // measure 74
1001
0001
0000
0010
0010
0100
0100
0001
,  // measure 75
0001
0001
0000
1000
1000
1000
1000
1000
,  // measure 76
1001
1000
0000
0100
0100
0010
0010
0010
,  // measure 77
0010
0010
0000
0010
0010
0010
0100
0100
,  // measure 78
1000
1000
0000
0100
0100
0001
0001
0010
,  // measure 79
0010
0010
0001
0001
0001
0001
0001
0001
,  // measure 80
1001
0001
0000
0010
0010
0100
0100
1000
,  // measure 81
1000
1000
0000
0100
0100
0100
0010
0010
,  // measure 82
1000
0010
0100
0001
0100
0000
0010
0000
0100
0001
1000
0001
0010
0100
0001
0000
,  // measure 83
0000
0000
0100
0001
0010
0000
0000
0001
0010
0000
0100
0001
0000
0000
0000
0000
,  // measure 84
0001
0100
0001
1000
0100
0010
0000
0001
0100
0000
0010
0100
0000
0000
0001
1000
,  // measure 85
0100
0001
0000
0010
0100
0001
1000
0000
0100
0001
0000
1000
0000
0000
0100
0000
,  // measure 86
0001
1000
0100
0001
0010
0000
0001
0100
0000
0100
0000
0001
0000
0000
0100
0001
,  // measure 87
0010
0000
0100
0001
0010
0100
0001
1000
0100
0010
0001
0010
0000
0000
0001
0100
,  // measure 88
1000
0010
0000
0100
0000
0000
0100
0010
1000
0100
0001
0100
0000
0000
0000
0000
,  // measure 89
0100
0000
0000
0001
0000
0000
0010
0100
0000
0000
0000
0000
0000
0000
0000
0000
,  // measure 90
0000
0000
0000
0000
1000
0000
0000
0001
0100
0000
0000
0000
0000
0000
0000
0000
,  // measure 91
2002
3003
0010
0000
0001
0100
1000
0000
,  // measure 92
0001
0100
1000
0000
0200
0000
0000
0000
,  // measure 93
0300
0001
0001
0100
,  // measure 94
0001
0000
0100
0000
0010
0000
0001
0100
,  // measure 95
1000
0000
0010
0000
0100
0001
1000
0000
,  // measure 96
0100
0001
0010
0000
0200
0000
0000
0000
,  // measure 97
0300
0000
0000
0001
0000
0000
0100
0000
0000
0000
0010
0000
0000
0001
0000
0000
,  // measure 98
0100
0000
0000
0001
0000
0000
0000
0000
0000
1000
0000
0000
0100
0000
0001
0000
,  // measure 99
0020
0000
0200
0000
0000
0000
0330
1001
,  // measure 100
0101
0000
0001
0000
0100
0001
0100
1000
0000
0000
0001
0100
0001
0100
0000
0000
,  // measure 101
1001
0000
0001
0000
0100
0001
0100
1000
0000
0000
0100
0001
0100
0001
0010
0100
,  // measure 102
0001
0100
1000
0000
0010
0001
0100
0020
0000
0000
0000
0000
0000
0000
0030
0000
,  // measure 103
0200
0020
0000
0330
,  // measure 104
1000
0000
1000
0000
0100
0001
1000
0100
0000
0000
0001
0100
0001
0100
0000
0000
,  // measure 105
1001
0000
0001
0000
0100
0001
0100
1000
0000
0000
0001
0100
0010
0000
0100
0000
,  // measure 106
0001
0000
0000
0000
0010
0000
0000
0100
0000
0000
0000
0000
0000
0000
0000
0000
,  // measure 107
1000
0001
0010
0100
,  // measure 108
0010
0000
0010
0000
0100
0001
0100
1000
0000
0000
0010
0100
0001
0100
0000
0000
,  // measure 109
1001
0000
1000
0000
0001
0010
0100
0001
0000
0000
0001
0100
0010
0100
0000
0000
,  // measure 110
1000
0000
1000
0000
0100
0001
0100
0010
0000
0000
0100
0001
0100
0001
0000
0000
,  // measure 111
0020
0200
0000
0330
,  // measure 112
0001
0000
0001
0000
0010
0001
0100
1000
0000
0000
0010
0100
0001
0100
0000
0000
,  // measure 113
1001
0000
0000
0000
0001
0100
0001
0100
0000
0000
0010
0100
0001
0100
0000
0000
,  // measure 114
1000
0000
1000
0000
0100
0010
0100
0001
0000
0000
0010
0100
0001
0100
0000
0000
,  // measure 115
0010
0000
0001
0100
1000
0000
0001
0100
0001
1000
0100
0000
1001
0000
0000
0000
,  // measure 116
0001
0000
0001
0100
0010
0000
0001
1000
0001
0100
0010
0000
1001
0000
0000
0000
,  // measure 117
2000
0200
0000
0000
,  // measure 118
0000
0000
3300
0020
0000
0000
0000
0000
,  // measure 119
0000
0000
0000
0000
,  // measure 120
0000
0000
0000
0030
;
