#VERSION:0.83;
#TITLE:please tell rosie;
#SUBTITLE:;
#ARTIST:Alle Farben & YouNotUs;
#TITLETRANSLIT:;
#SUBTITLETRANSLIT:;
#ARTISTTRANSLIT:;
#GENRE:;
#ORIGIN:;
#CREDIT:;
#BANNER:;
#BACKGROUND:;
#PREVIEWVID:;
#JACKET:;
#CDIMAGE:;
#DISCIMAGE:;
#LYRICSPATH:;
#CDTITLE:;
#MUSIC:Alle Farben (feat. YOUNOTUS) - Please Tell Rosie.ogg;
#OFFSET:0.000000;
#SAMPLESTART:100.059883;
#SAMPLELENGTH:12.000000;
#SELECTABLE:YES;
#BPMS:0.000=122.000;
#STOPS:0.000=1.500;
#DELAYS:;
#WARPS:;
#TIMESIGNATURES:0.000=4=4;
#TICKCOUNTS:0.000=4;
#COMBOS:0.000=1;
#SPEEDS:0.000=1.000=0.000=0;
#SCROLLS:0.000=1.000;
#FAKES:;
#LABELS:0.000=Song Start;
#BGCHANGES:;
#KEYSOUNDS:;
#ATTACKS:
;

//---------------dance-single - ----------------
#NOTEDATA:;
#CHARTNAME:;
#STEPSTYPE:dance-single;
#DESCRIPTION:;
#CHARTSTYLE:;
#DIFFICULTY:Hard;
#METER:11;
#RADARVALUES:0.464041,0.445269,0.023078,0.040387,0.000000,563.000000,559.000000,4.000000,7.000000,0.000000,0.000000,0.000000,0.000000,0.000000,0.464041,0.445269,0.023078,0.040387,0.000000,563.000000,559.000000,4.000000,7.000000,0.000000,0.000000,0.000000,0.000000,0.000000;
#CREDIT:;
#NOTES:
// measure 0
0000
0000
0000
0000
,  // measure 1
0000
0000
0000
0000
,  // measure 2
0000
0000
0000
0000
,  // measure 3
0000
0000
0000
0000
0001
0100
0001
0100
,  // measure 4
1000
0010
0100
0001
0010
0100
0001
0100
,  // measure 5
0010
0001
0100
0010
0001
0100
0001
0100
,  // measure 6
1000
0100
0010
0100
0010
0100
0010
0100
,  // measure 7
0010
0010
0100
1000
0100
0010
0100
0010
,  // measure 8
0100
0100
0010
0100
0010
0100
0001
0100
,  // measure 9
1000
0010
0100
0001
0100
0010
0100
0010
,  // measure 10
0100
0010
0100
1000
0100
0010
0100
0010
,  // measure 11
0100
0010
0100
0001
0100
0010
0001
0100
,  // measure 12
1000
0100
0010
0100
0010
0100
0010
0100
,  // measure 13
0001
0100
0001
0100
0001
0100
0100
0010
,  // measure 14
0100
0010
0100
0010
1000
0100
0100
1000
,  // measure 15
1000
0100
1000
0100
1000
0100
1000
0100
,  // measure 16
0010
0100
0010
0100
0010
1000
0100
0010
,  // measure 17
0100
0001
0100
0001
0100
0001
0100
0010
,  // measure 18
0001
0010
0010
0001
1000
0001
0100
0010
,  // measure 19
0000
0000
0001
0000
0100
0010
0000
0000
,  // measure 20
0002
1000
0000
1003
,  // measure 21
0100
0000
0001
0010
0000
0001
0000
0100
,  // measure 22
0000
0100
0001
0010
0100
0000
0100
0000
,  // measure 23
0010
0000
0001
0100
0000
0010
0000
0001
,  // measure 24
1000
0001
0100
0001
0100
0000
0100
0000
,  // measure 25
0010
0000
0001
0100
0000
0010
0000
0001
,  // measure 26
0100
0001
0100
1000
0000
0010
0000
0001
,  // measure 27
0100
0001
0100
1000
0100
0000
0010
0000
,  // measure 28
0001
1000
0001
0100
0001
0000
0100
0000
,  // measure 29
0110
0010
0100
0010
0001
0100
0001
0100
,  // measure 30
1000
0010
0100
0010
0001
0100
0001
0100
,  // measure 31
1000
0010
0001
0100
0001
0100
0010
0001
,  // measure 32
1000
0001
0100
0010
0100
0010
0001
0100
,  // measure 33
0001
0100
0010
0001
0100
0001
0010
1000
,  // measure 34
0010
0100
0010
0100
0010
0100
0001
1000
,  // measure 35
0001
0100
0010
0001
0100
0001
0100
0010
,  // measure 36
0001
1000
0001
0100
0001
0000
0100
0000
,  // measure 37
0200
0000
0300
0020
0000
0000
0030
0000
,  // measure 38
0010
0000
0001
0100
0000
0001
0000
0100
,  // measure 39
0000
0000
0001
0000
0100
1000
0010
0200
,  // measure 40
0000
0000
0300
0000
0100
0010
0001
0100
,  // measure 41
1000
0001
0010
0010
0001
0100
0001
1000
,  // measure 42
0100
0001
0100
0010
0001
0100
0001
0100
,  // measure 43
1000
0010
0100
0010
0001
0100
0001
0100
,  // measure 44
1000
0001
0100
0010
0001
0100
0001
0100
,  // measure 45
0010
0001
0100
0010
0001
0100
0001
0100
,  // measure 46
1000
0010
0001
0100
0010
0001
0100
0001
,  // measure 47
0100
0010
0001
1000
0001
0100
0010
0001
,  // measure 48
0100
0001
0100
0010
0001
0100
0001
1000
,  // measure 49
0100
0000
0010
0200
0000
0000
0000
0000
,  // measure 50
0000
0000
0000
0300
0001
1000
0001
0100
,  // measure 51
0010
0000
0010
0002
0000
0000
0000
0000
,  // measure 52
0000
0000
0000
0003
0001
0100
0001
0100
,  // measure 53
1000
0000
0100
0010
0000
0001
0000
0000
,  // measure 54
0000
0000
0000
0100
0000
0000
0000
0001
,  // measure 55
0100
0000
0010
0000
0001
0100
0000
0001
,  // measure 56
0000
0000
0100
0000
0010
0001
0000
0000
,  // measure 57
0110
0010
0001
0100
0001
0100
1000
0000
,  // measure 58
0100
0001
0100
0001
1000
0001
0010
0100
,  // measure 59
0001
0100
0001
0010
0100
0001
1000
0001
,  // measure 60
0010
0100
0100
0100
0100
0100
0010
0100
,  // measure 61
0010
0001
0100
0010
0001
0100
0001
0100
,  // measure 62
1000
0010
0001
1000
0001
0100
0010
0001
,  // measure 63
0100
0001
0100
0010
0001
1000
0001
0100
,  // measure 64
0010
0001
0100
0001
0100
0000
1000
0000
,  // measure 65
0101
0001
0100
0001
0100
0001
0100
0010
,  // measure 66
0100
0001
1000
0001
0010
0100
0001
1000
,  // measure 67
0001
0100
0010
0100
0010
0100
0010
0001
,  // measure 68
1000
0001
0100
0010
0001
0100
0001
0100
,  // measure 69
1000
0010
0001
0100
0001
0100
0010
0001
,  // measure 70
1000
0001
0100
0010
0001
0100
0001
0100
,  // measure 71
0010
0001
1000
0001
0100
0010
0100
0010
,  // measure 72
0001
1000
0001
0100
0001
0000
0100
0000
,  // measure 73
0010
0001
1000
0001
0100
0010
0100
0001
,  // measure 74
0100
0010
0001
1000
0001
0100
0010
0001
,  // measure 75
0100
0001
0100
0001
0100
0010
0001
1000
,  // measure 76
0001
0100
0010
0001
1000
0001
0100
0010
,  // measure 77
0100
0000
0010
0001
0000
0100
0000
0001
,  // measure 78
1001
0010
0100
0001
0100
0001
0100
0001
,  // measure 79
1000
0001
0010
0100
0010
0001
0100
0001
,  // measure 80
0100
0010
0001
0100
0001
0100
0010
0001
,  // measure 81
1000
0001
0100
0010
0001
0100
0001
0100
,  // measure 82
0010
0001
0100
0001
0100
0010
0001
1000
,  // measure 83
0001
0100
0010
0001
0100
0001
0100
0010
,  // measure 84
0100
0001
0100
1000
0001
0000
0100
0000
,  // measure 85
0020
0000
0000
0030
;
