#TITLE:places to be;
#SUBTITLE:;
#ARTIST:Fred Again, CHIKA, & Anderson .Paak;
#TITLETRANSLIT:;
#SUBTITLETRANSLIT:;
#ARTISTTRANSLIT:;
#GENRE:;
#CREDIT:;
#BANNER:;
#BACKGROUND:;
#LYRICSPATH:;
#CDTITLE:;
#MUSIC:places to be.ogg;
#OFFSET:0.000000;
#SAMPLESTART:100.059883;
#SAMPLELENGTH:12.000000;
#SELECTABLE:YES;
#BPMS:0.000000=176.000000
,432.000000=88.000000
,464.000000=176.000000
,512.000000=88.000000
,520.000000=176.000000
,560.000000=156.000000
,564.000000=146.000000
,568.000000=131.000000
,572.000000=116.000000
,576.000000=106.000000
,584.000000=66.000000
;
#STOPS:
;
#BGCHANGES:;
#KEYSOUNDS:;
#ATTACKS:;

//---------------dance-single - ----------------
#NOTES:
     dance-single:
     :
     Hard:
     16:
     0.826689,1.091387,0.017847,0.008923,0.419399,1297.000000,1293.000000,4.000000,2.000000,0.000000,0.000000,0.826689,1.091387,0.017847,0.008923,0.419399,1297.000000,1293.000000,4.000000,2.000000,0.000000,0.000000:
// measure 0
0000
0000
0000
0000
,  // measure 1
0000
0000
0000
0000
,  // measure 2
0000
0000
0000
0000
,  // measure 3
0000
0000
0000
0000
,  // measure 4
0010
0100
0010
0001
0100
0010
0001
1000
,  // measure 5
0001
0100
0010
0001
0100
0001
0100
0010
,  // measure 6
0001
1000
0001
0100
0010
0001
0100
0001
,  // measure 7
0100
0010
0001
1000
0001
0100
0010
0001
,  // measure 8
0100
0001
0100
0010
0100
1000
0010
0100
,  // measure 9
0010
0100
0001
0100
0010
0001
0100
0001
,  // measure 10
0100
0010
0001
1000
0001
0100
0010
0001
,  // measure 11
0100
0001
0100
0010
0001
1000
0001
0100
,  // measure 12
0010
0001
0100
0010
0001
1000
0001
0100
1000
0000
0100
0000
0010
0000
0100
0000
,  // measure 13
1000
0100
0010
0100
0010
0001
0100
0001
,  // measure 14
0010
0100
0001
0100
0010
0100
1000
0010
,  // measure 15
0100
0010
0100
0010
0100
0001
1000
0100
,  // measure 16
0100
0010
0001
0100
0001
0100
0010
0100
,  // measure 17
1000
0100
0010
0100
0010
0100
1000
0100
,  // measure 18
0010
0100
0010
0100
1000
0100
0010
0100
,  // measure 19
0010
0100
1000
0010
0100
0001
0010
0100
,  // measure 20
0001
0100
0010
0001
1000
0001
0100
0010
,  // measure 21
0001
0100
0010
0000
0001
1000
0100
0010
,  // measure 22
0100
0001
0100
1000
0100
0001
0010
0010
,  // measure 23
0100
0010
0100
0010
0001
1000
0100
0000
,  // measure 24
0010
0100
0100
0010
0100
0010
0001
1000
,  // measure 25
0001
0100
0010
0000
0100
1000
0001
0100
,  // measure 26
0001
0010
0001
0100
0010
0001
1000
0001
,  // measure 27
0100
0010
0001
0100
0001
1000
0100
0000
,  // measure 28
0001
0100
0010
0001
0100
0010
0001
0100
,  // measure 29
0001
1000
0100
0000
0100
0010
0100
0001
,  // measure 30
1000
0001
0010
0100
0001
1000
0001
0010
,  // measure 31
0100
0001
1000
0001
0010
0100
0001
0010
,  // measure 32
0100
0010
0001
0100
0001
0100
0010
0001
,  // measure 33
1000
0001
0100
0010
0001
0100
0001
0100
,  // measure 34
0100
0100
0100
1000
0100
0010
0001
0100
,  // measure 35
0001
0100
0010
0001
1000
0001
0100
0010
,  // measure 36
1000
0100
0001
1000
0001
0010
0100
0001
0010
0100
0001
1000
0001
0000
0010
0000
,  // measure 37
0100
0001
1000
0001
0010
0100
0001
1000
,  // measure 38
0001
0010
0100
0001
1000
0001
0010
0100
,  // measure 39
0001
0000
1000
0000
0001
0000
0010
0100
0001
1000
0001
0010
0100
0001
1000
0001
,  // measure 40
0010
0100
0001
1000
0001
0010
0100
0001
1000
0001
0010
0100
0001
0000
0010
0000
,  // measure 41
0100
0010
0001
0100
0001
0100
0010
0001
,  // measure 42
0100
0001
0100
0010
0001
0100
0001
0100
,  // measure 43
0010
0001
1000
0001
0100
0010
0001
0100
,  // measure 44
1000
0100
0010
0100
0010
0100
0010
0100
0010
0100
0001
0100
1000
0000
0010
0000
,  // measure 45
0100
0001
1000
0001
0010
0100
0001
0100
,  // measure 46
0001
0010
0100
0001
1000
0001
0010
0100
,  // measure 47
0001
0000
0010
0000
0100
0000
0001
0010
1000
0100
0001
0010
0100
0010
0001
0100
,  // measure 48
1000
0010
0100
0010
0100
0001
0100
0010
1000
0100
0001
0010
0100
0000
0100
0000
,  // measure 49
0010
0100
0010
0100
1000
0010
0100
0010
,  // measure 50
0100
0010
0100
0001
0100
0010
0001
0100
,  // measure 51
0001
0100
0010
0001
1000
0001
0100
0010
,  // measure 52
0001
0100
0010
0001
0100
0001
1000
0100
,  // measure 53
0000
1000
0001
0100
0010
0001
0100
0000
,  // measure 54
0001
0100
0010
0001
0100
0001
1000
0100
,  // measure 55
0000
0000
0001
0100
0000
0010
0100
0001
,  // measure 56
0010
0100
0010
0001
1000
0001
0100
0020
,  // measure 57
0000
0000
0000
0000
0030
0001
0100
1000
,  // measure 58
0000
0000
0100
0000
0000
0000
0001
0000
0010
0000
0000
0000
0000
0000
0100
0001
,  // measure 59
0010
0000
0010
0000
0100
0010
0001
1000
,  // measure 60
0100
0010
0100
0001
1000
0000
0010
0000
0100
0000
0001
0000
0010
0000
0100
0000
,  // measure 61
0001
0000
1000
0010
0100
0000
0001
0000
0100
0000
0001
0000
0010
0000
0001
0000
,  // measure 62
0010
0010
0100
0010
0001
0100
0001
0100
,  // measure 63
0010
0000
0001
1000
0100
0000
0010
0000
0100
0000
1000
0000
0100
0000
0010
0000
,  // measure 64
0100
0010
0100
0010
0001
1000
0001
0100
,  // measure 65
0010
0001
0100
0001
0100
0010
0001
0100
,  // measure 66
0010
0000
1000
0001
0100
0000
0010
0100
0001
0000
1000
0001
0100
0000
0010
0000
,  // measure 67
0010
0000
1000
0001
0100
0000
0010
0000
0001
0000
0100
0000
0001
0000
0100
0000
,  // measure 68
1000
0100
0010
0001
1000
0001
0100
0010
,  // measure 69
1001
0000
0101
0000
0110
0000
0110
0010
,  // measure 70
0001
0100
0010
0001
0100
0010
0001
0100
,  // measure 71
1000
0010
0010
0100
0010
0100
0001
0100
,  // measure 72
0010
0001
0100
1000
0100
0010
0001
0100
,  // measure 73
0001
0100
0010
0001
0100
0001
0100
0010
,  // measure 74
0001
0100
1000
0100
0010
0001
0100
0001
,  // measure 75
0100
0010
0001
1000
0001
0100
0010
0001
,  // measure 76
0100
0010
0001
0100
0001
0100
0010
0001
,  // measure 77
1000
0001
0100
0000
0001
0010
0100
0010
,  // measure 78
0001
1000
0001
0100
0010
0001
1000
0001
,  // measure 79
0100
0010
0001
0100
0001
0100
1000
0010
,  // measure 80
0100
0001
1000
0001
0010
0100
0001
0100
,  // measure 81
0001
0010
0100
0000
0010
0001
0100
0010
,  // measure 82
0001
1000
0001
0100
1000
0010
0001
0100
,  // measure 83
0010
0001
0100
0010
0001
0100
0001
1000
,  // measure 84
0100
0001
0100
0010
0100
0010
0001
0100
,  // measure 85
0010
0001
0100
0000
1000
0010
0100
0001
,  // measure 86
1000
0001
0010
0100
0001
1000
0001
0010
,  // measure 87
0100
0001
1000
0001
0010
0100
0001
0010
,  // measure 88
0100
0001
0010
1000
0100
0100
0001
0100
,  // measure 89
0010
0001
0100
0010
0001
1000
0001
0100
,  // measure 90
0010
0001
0100
0001
0100
0010
0001
1000
,  // measure 91
0001
0100
0010
0001
0100
0001
0100
0010
,  // measure 92
1000
0100
0001
1000
0001
0010
0100
0001
1000
0001
0010
0100
0001
0000
0010
0000
,  // measure 93
0100
0001
0100
0010
0001
1000
0001
0100
,  // measure 94
0010
0001
0100
0001
0100
0010
0001
1000
,  // measure 95
0001
0000
0010
0000
0100
0000
0001
0100
0010
0001
0100
0010
0001
1000
0001
0100
,  // measure 96
1000
0010
0100
0001
1000
0001
0010
0100
0001
1000
0001
0010
0100
0000
0010
0000
,  // measure 97
0100
0001
0100
0010
0001
1000
0001
0100
,  // measure 98
0010
0001
0100
0001
0100
0010
0001
1000
,  // measure 99
0001
0000
0100
0000
0010
0000
0010
0100
0001
0010
0100
0010
0001
0010
0100
0010
,  // measure 100
1000
0100
0010
0100
0010
0100
0010
0001
1000
0001
0100
0010
0100
0000
0010
0000
,  // measure 101
0100
0010
0100
1000
0010
0100
0010
0100
,  // measure 102
0010
0001
0100
0001
0100
0010
0001
1000
,  // measure 103
0001
0000
0100
0000
0010
0000
0001
0100
0100
0001
0010
0001
1000
0001
0100
0010
,  // measure 104
1000
0100
0001
0100
0010
0001
0100
0001
1000
0001
0010
0100
0001
0000
0010
0000
,  // measure 105
0100
1000
0100
0010
0001
0100
0001
0100
,  // measure 106
0010
0001
1000
0001
0100
0010
0001
0100
,  // measure 107
0001
0100
0010
0001
1000
0001
0100
0010
,  // measure 108
1000
0000
0100
0000
0001
0010
0100
0001
0010
0000
0100
0000
0001
1000
0010
0100
,  // measure 109
0001
0000
0001
0000
0010
0100
0001
1000
0001
0000
0100
0000
0010
0100
0001
1000
,  // measure 110
0100
0000
0010
0000
0100
0010
0001
0100
1000
0000
0100
0000
0010
0000
0100
0010
,  // measure 111
0001
0100
0010
0001
0100
0001
0100
0010
0001
1000
0001
0100
0000
0010
0001
0100
,  // measure 112
1000
0000
0010
0000
0100
0010
0001
0100
1000
0000
0100
0000
0010
0100
0001
1000
,  // measure 113
0100
0000
0010
0000
0001
1000
0001
0100
0010
0000
0001
0000
0100
0010
0001
0100
,  // measure 114
1000
0000
0100
0000
0010
0100
0001
0100
1000
0000
0001
0000
0100
0000
0010
0001
,  // measure 115
0100
0010
0001
0100
0001
0100
0010
0001
1000
0100
0010
0100
0010
0100
0001
0100
,  // measure 116
1000
0100
0010
0100
0001
1000
0001
0010
0100
0010
0100
0001
1000
0000
0100
0000
,  // measure 117
0010
0001
1000
0001
0100
0010
0100
0001
,  // measure 118
0100
0010
0100
0001
0100
0010
0001
1000
,  // measure 119
0001
0100
0010
0001
0100
0001
0100
0010
,  // measure 120
1000
0100
0001
0100
0010
0100
0001
1000
0001
0010
0100
0001
0010
0000
1000
0000
,  // measure 121
0100
0100
0010
0100
0010
0100
1000
0100
,  // measure 122
0010
0100
0001
0100
0010
0001
1000
0001
,  // measure 123
0100
0010
0100
0001
0100
0001
0010
0100
,  // measure 124
1000
0100
0001
1000
0001
0010
0100
0001
0010
0100
0001
1000
0001
0010
0100
1000
,  // measure 125
0100
0001
0010
0001
0010
0001
0100
0001
0010
0000
0100
0000
1000
0000
0010
0000
,  // measure 126
0100
0010
0100
0010
0100
1000
0100
0010
,  // measure 127
0100
0010
0100
1000
0100
0100
0010
0001
,  // measure 128
1000
0100
0000
0001
0000
0100
0000
0010
0000
0001
0000
0100
0000
1000
0000
0001
,  // measure 129
0000
0100
0000
0010
0000
0001
0000
0100
0010
0001
0100
0010
0001
1000
0001
0100
,  // measure 130
1000
0100
0010
0100
1000
0001
0010
0100
0001
0100
0010
0100
0100
0010
0001
0100
,  // measure 131
1000
0100
0010
0100
0010
0100
0001
1000
0100
0000
0100
0000
0001
0000
0100
0000
,  // measure 132
0010
0001
1000
0001
0100
0010
0001
0100
,  // measure 133
0001
0100
0010
0001
1000
0001
0100
0010
,  // measure 134
1000
0100
0001
0100
0010
0100
1000
0001
0010
0100
0001
1000
0001
0010
0100
0001
,  // measure 135
0100
0001
0010
0100
0001
0010
0100
0001
0010
0000
0100
0000
0010
0000
0100
0000
,  // measure 136
1000
0100
0010
0100
0010
0100
0010
0100
,  // measure 137
0010
0100
0010
0100
1000
0100
0010
0100
,  // measure 138
0010
0100
1000
0010
0100
0010
0100
0010
,  // measure 139
0100
1000
0100
0010
0100
0010
0100
1000
,  // measure 140
0010
0100
0100
0010
1000
0100
0010
0100
,  // measure 141
1000
0100
0010
1000
0010
0100
0010
0100
,  // measure 142
1000
0100
0010
0001
1000
0001
0100
0010
,  // measure 143
1000
0100
0001
1000
0001
0010
0100
0001
,  // measure 144
0010
0010
0100
0010
0001
1000
0001
0100
,  // measure 145
1000
0100
0010
0100
0010
0100
0001
0100
,  // measure 146
1000
0010
0100
1000
0100
0001
0100
0002
,  // measure 147
0000
0000
0000
0000
,  // measure 148
0000
0003
0000
0000
;
